<?xml version="1.0" standalone="no"?>
<!DOCTYPE svg PUBLIC "-//W3C//DTD SVG 1.1//EN" "http://www.w3.org/Graphics/SVG/1.1/DTD/svg11.dtd">
<svg xmlns="http://www.w3.org/2000/svg">
<metadata>Generated by Fontastic.me</metadata>
<defs>
<font id="axfont" horiz-adv-x="512">
<font-face font-family="axfont" units-per-em="512" ascent="480" descent="-32"/>
<missing-glyph horiz-adv-x="512" />

<glyph unicode="&#98;" d="M193 145c4 7 5 13 3 20c-2 7-6 11-13 14c-6 3-13 3-21 0c-7-2-13-6-17-13c-4-6-5-13-4-19c2-7 6-12 13-15c6-3 13-3 21 0c8 2 14 7 18 13z m27 35c1 2 2 5 1 7c-1 3-3 5-5 6c-3 1-6 0-8-1c-3-1-5-2-7-5c-3-6-2-10 4-13c3-1 6-1 8 0c3 1 5 3 7 6z m49-31c-8-19-23-34-45-43c-21-9-43-10-64-3c-20 6-34 18-42 36c-8 18-7 35 2 54c9 17 23 31 43 39c20 9 40 11 60 6c22-6 37-17 46-34c9-18 9-36 0-55z m90 46c-2 18-11 34-26 48c-15 15-35 25-59 32c-25 6-51 8-79 6c-42-5-78-18-105-41c-28-22-41-48-38-75c1-19 10-35 25-49c15-14 35-24 60-31c24-7 50-9 78-6c43 4 78 18 106 40c28 23 40 48 38 76z m88-1c0-13-4-27-11-40c-7-14-17-27-31-39c-14-13-30-24-48-34c-19-10-40-18-65-24c-25-5-50-8-77-8c-27 0-53 3-79 9c-25 7-48 15-68 27c-21 11-37 25-49 43c-13 17-19 36-19 57c0 22 7 45 20 70c13 25 32 49 56 74c32 32 65 54 98 67c33 13 56 12 70-2c13-12 15-32 6-60c-1-2-1-4 0-5c0-2 1-2 3-2c1-1 2-1 4 0c1 0 2 0 4 1l1 0c27 12 50 17 71 17c20 0 35-6 43-17c9-12 9-29 0-51c0-3-1-5-1-6c0-1 0-2 1-3c2-1 3-2 4-3c1 0 2-1 5-1c10-4 20-8 29-14c9-5 16-13 23-23c6-10 10-21 10-33z m-22 178c8-9 14-19 16-31c2-12 2-23-2-34c-1-4-4-7-8-9c-4-2-9-3-13-1c-4 1-8 4-10 8c-2 4-2 8-1 13c4 12 2 22-7 31c-8 10-18 13-30 10c-5-1-9 0-13 3c-4 2-7 6-7 10c-1 5 0 9 2 13c2 4 6 6 11 7c11 3 22 2 34-1c11-4 20-10 28-19z m52 47c17-19 27-40 32-64c5-24 4-47-4-69c-1-5-5-9-9-11c-5-3-10-3-15-2c-5 2-9 5-12 10c-2 5-3 10-1 15c5 16 6 32 3 49c-4 17-11 32-23 45c-12 13-26 23-42 28c-17 5-33 5-50 2c-5-1-10 0-15 3c-4 3-7 7-8 12c-1 5 0 10 3 15c3 4 7 7 12 8c23 5 47 4 70-3c23-7 43-20 59-38z"/>
<glyph unicode="&#99;" d="M511 356c4-11-9-37-40-78c-4-6-10-13-17-23c-14-18-22-29-24-35c-3-7-2-14 4-21c3-4 10-11 21-22l0 0l1 0l0-1l1 0c25-24 42-43 50-59c1-1 2-2 2-4c1-1 1-3 2-7c1-3 1-6 0-9c-1-2-3-5-7-7c-3-2-9-3-15-3l-69-1c-4-1-9-1-15 1c-5 2-10 4-14 6l-5 3c-5 4-11 9-19 17c-7 8-13 15-18 21c-5 6-10 11-16 15c-6 4-11 6-15 4c-1 0-1 0-2-1c-1 0-3-1-5-3c-2-3-4-5-6-8c-1-3-3-8-4-14c-1-6-2-13-2-21c0-3 0-5-1-7c0-2-1-4-2-5l-1-1c-3-4-8-6-14-6l-31 0c-12-1-25 0-39 4c-13 4-25 8-35 14c-10 6-19 12-27 18c-8 6-15 11-19 15l-7 7c-1 1-4 4-7 8c-3 3-9 11-19 24c-10 12-19 26-28 40c-9 14-20 33-33 56c-12 24-24 48-35 73c-1 3-1 5-1 7c0 2 0 3 1 4l1 2c2 3 7 5 15 5l73 1c2-1 4-1 6-2c2-1 3-2 4-2l2-1c2-2 5-5 6-9c4-9 8-18 12-27c5-10 9-17 11-22l4-8c6-11 11-20 15-28c5-7 10-14 13-18c4-4 8-8 11-10c4-3 7-4 9-4c3 0 5 1 8 1c0 1 0 1 1 2c1 1 2 2 3 6c2 3 3 7 4 12c1 5 1 13 2 22c1 9 1 20 0 33c0 7-1 14-2 20c-1 5-3 10-4 12l-1 3c-5 6-12 10-23 12c-2 0-2 2 1 6c3 3 7 6 10 8c10 5 31 7 64 6c15 0 27-1 36-3c4-1 7-2 9-4c2-1 4-3 6-6c1-3 2-6 2-9c1-3 1-7 1-12c0-5 0-10 0-14c0-5 0-11-1-19c0-8 0-16 0-22c0-2 0-6 0-11c-1-6-1-10 0-13c0-3 0-7 0-11c1-4 2-8 4-10c1-3 3-5 6-7c1 0 2-1 4-1c2 0 4 1 7 3c3 2 6 5 10 9c4 4 8 10 14 18c6 8 12 18 18 29c11 18 20 38 29 60c0 1 1 3 2 4c1 2 2 3 3 3l1 1l2 1c0 0 1 0 3 0c2 1 4 1 5 0l77 1c7 1 13 1 17-1c5-1 8-2 9-4z"/>
<glyph unicode="&#100;" d="M485 238c0-5-2-10-6-13c-3-4-8-6-13-6l-64 0c0-32-6-60-19-82l60-60c3-4 5-8 5-13c0-5-2-9-5-13c-4-3-8-5-13-5c-5 0-10 2-13 5l-57 56c-1-1-2-2-4-3c-2-2-6-5-12-8c-6-4-12-8-19-11c-6-3-14-6-23-8c-9-3-19-4-28-4l0 256l-36 0l0-256c-10 0-20 1-29 4c-10 3-18 6-25 9c-7 4-13 8-19 12c-6 3-10 6-12 9l-5 4l-52-59c-4-4-8-6-14-6c-4 0-8 1-12 4c-4 4-6 8-6 13c0 5 1 9 5 13l57 65c-11 22-16 48-16 78l-64 0c-5 0-10 2-13 6c-4 3-6 8-6 13c0 5 2 9 6 13c3 3 8 5 13 5l64 0l0 84l-50 49c-3 4-5 8-5 13c0 5 2 10 5 13c4 4 8 6 13 6c5 0 9-2 13-6l49-49l242 0l49 49c4 4 8 6 13 6c5 0 9-2 13-6c3-3 5-8 5-13c0-5-2-9-5-13l-50-49l0-84l64 0c5 0 10-2 13-5c4-4 6-8 6-13z m-138 164l-182 0c0 26 8 47 26 65c18 18 40 27 65 27c25 0 47-9 65-27c18-18 26-39 26-65z"/>
<glyph unicode="&#101;" d="M311 274c0 5-2 10-6 13c-3 4-7 6-12 6l-74 0c-5 0-9-2-12-6c-4-3-6-8-6-13c0-5 2-9 6-13c3-3 7-5 12-5l74 0c5 0 9 2 12 5c4 4 6 8 6 13z m164 55l0-274c0-5-1-9-5-13c-4-4-8-5-13-5l-402 0c-5 0-9 1-13 5c-4 4-5 8-5 13l0 274c0 5 1 9 5 13c4 4 8 5 13 5l402 0c5 0 9-1 13-5c4-4 5-8 5-13z m19 128l0-73c0-5-2-9-6-13c-3-3-8-5-13-5l-438 0c-5 0-10 2-13 5c-4 4-6 8-6 13l0 73c0 5 2 9 6 13c3 4 8 5 13 5l438 0c5 0 10-1 13-5c4-4 6-8 6-13z"/>
<glyph unicode="&#102;" d="M397 140c-10-2-21-3-31-3c-35 0-67 9-97 26c-29 17-52 40-70 70c-17 29-25 61-25 96c0 37 10 71 29 102c-38-11-69-33-93-65c-25-32-37-69-37-110c0-25 5-48 15-71c9-23 22-42 39-58c16-17 35-30 58-39c23-10 46-15 71-15c27 0 53 6 78 18c25 11 46 28 63 49z m58 24c-18-39-45-70-81-93c-36-23-75-34-118-34c-30 0-58 5-85 17c-27 12-51 27-70 47c-20 19-35 43-47 70c-12 27-17 55-17 85c0 29 5 57 16 84c11 26 26 49 45 69c18 19 41 35 67 47c26 11 54 18 83 19c8 1 14-3 17-11c4-8 2-15-4-21c-17-14-29-32-38-51c-8-20-13-41-13-63c0-28 7-54 21-78c14-24 33-43 57-56c24-14 50-21 78-21c22 0 44 5 65 14c8 4 15 2 20-3c3-3 5-6 5-10c1-4 1-8-1-11z"/>
<glyph unicode="&#103;" d="M421 256c0 22-5 44-13 64c-9 20-21 38-36 52c-14 15-32 27-52 36c-20 8-42 13-64 13c-22 0-44-5-64-13c-20-9-38-21-52-36c-15-14-27-32-36-52c-8-20-13-42-13-64c0-22 5-44 13-64c9-20 21-38 36-52c14-15 32-27 52-36c20-8 42-13 64-13c22 0 44 5 64 13c20 9 38 21 52 36c15 14 27 32 36 52c8 20 13 42 13 64z m78-79c0-3-2-5-5-6l-84-27l0-88c0-3-1-5-3-7c-3-2-6-2-9-1l-83 27l-52-71c-1-3-4-4-7-4c-3 0-6 1-7 4l-52 71l-83-27c-3-1-6-1-9 1c-2 2-3 4-3 7l0 88l-84 27c-3 1-5 3-5 6c-1 3-1 6 1 8l51 71l-51 71c-2 2-2 5-1 8c0 3 2 5 5 6l84 27l0 88c0 3 1 5 3 7c3 2 6 2 9 1l83-27l52 71c1 3 4 4 7 4c3 0 6-1 7-4l52-71l83 27c3 1 6 1 9-1c2-2 3-4 3-7l0-88l84-27c3-1 5-3 5-6c1-3 1-6-1-8l-51-71l51-71c2-2 2-5 1-8z"/>
<glyph unicode="&#112;" d="M221 475l63 0l0-110l104 0l0-69l-104 0l0-113c0-26 1-42 4-49c2-7 7-13 15-17c9-6 20-9 33-9c22 0 44 7 66 22l0-69c-19-10-36-16-51-19c-14-4-31-5-49-5c-20 0-38 2-53 7c-15 5-28 12-40 22c-11 9-18 19-22 30c-4 10-6 25-6 46l0 154l-49 0l0 62c17 5 32 13 44 24c12 10 22 23 30 37c7 15 12 34 15 56z"/>
<glyph unicode="&#113;" d="M279 263c0 9-4 15-12 19c-8 5-15 5-22 1c-8-4-12-11-12-21c0-10 4-17 12-20c8-5 16-4 24 1c8 5 11 12 10 20z m23 5c1-13-2-24-11-35c-8-10-18-16-31-17c-13-1-24 3-34 11c-10 9-15 20-16 33c0 9 2 18 7 26c6 9 12 15 21 19c13 5 27 5 40-3c14-8 22-19 24-34z m49 112c-4-4-9-8-15-10c-7-2-12-4-16-5c-3 0-9-1-18-2c-29-4-60-4-92 0c-9 1-15 2-18 3c-4 1-9 2-15 4c-7 3-12 6-16 10c3 3 6 6 10 9c5 2 9 3 12 4c3 1 8 1 13 2c38 7 77 7 117 1c6-1 11-2 14-3c4 0 8-2 13-4c4-3 8-6 11-9z m12-213c0 1 0 3 1 7c1 4 2 7 1 9c0 3-2 4-5 5c-30-20-65-30-104-30c-39 0-74 10-105 30l-3-2l-1-3c5-29 8-49 11-60c9-16 29-26 59-31c47-9 88-4 122 15c6 4 11 9 14 15c3 6 5 14 6 24c2 10 3 17 4 21z m37 198c2 10 1 17-2 21c-8 10-23 19-45 25c-41 12-87 16-139 10c-25-2-46-6-64-13c-8-3-13-5-17-7c-4-2-9-5-14-10c-5-4-7-9-8-15c1-13 3-26 5-39c2-14 5-30 9-49c3-20 5-33 6-39c1-1 1-4 2-9c1-5 1-9 2-11c0-1 2-4 3-7c2-4 4-6 7-8c20-16 47-25 81-29c49-5 91 1 125 18c5 3 9 5 12 7c3 2 6 4 9 8c3 4 4 7 5 11c9 51 17 96 23 136z m75 28l0-274c0-23-8-42-24-58c-16-16-35-24-58-24l-274 0c-23 0-42 8-58 24c-16 16-24 35-24 58l0 274c0 23 8 42 24 58c16 16 35 24 58 24l274 0c23 0 42-8 58-24c16-16 24-35 24-58z"/>
<glyph unicode="&#114;" d="M288 267c1-12-4-22-15-29c-11-8-21-8-32-2c-7 3-12 9-15 17c-3 7-3 15 0 23c3 8 8 13 15 17c7 3 14 4 21 3c7-1 13-5 18-10c5-6 8-12 8-19z m31 6c-2 20-13 36-32 46c-19 11-37 13-56 4c-12-5-22-14-29-25c-7-12-10-24-10-37c1-17 8-32 22-44c14-13 30-18 48-16c17 1 32 9 43 24c12 14 17 30 14 48z m69 154c-4 6-9 10-16 13c-7 3-13 6-17 6c-4 1-11 2-20 4c-56 9-109 9-162-1c-8-1-14-2-19-3c-4-1-9-3-15-6c-7-4-11-8-15-13c6-5 13-9 22-13c9-3 16-5 21-6c5-1 14-2 25-3c43-6 86-6 128 0c12 1 21 2 26 3c5 1 12 3 20 6c9 3 16 8 22 13z m16-295c-2-5-3-13-4-22c-2-10-3-18-4-24c-2-7-4-13-9-20c-4-7-9-12-16-16c-17-9-35-16-54-21c-20-4-39-6-58-6c-19 0-38 2-58 5c-8 2-16 4-23 5c-7 2-14 5-22 8c-8 3-14 8-21 13c-6 5-11 10-14 17c-5 18-11 46-17 84l2 4l5 3c43-28 91-43 145-43c54 0 102 15 145 43c4-1 6-4 7-7c0-3 0-7-2-13c-1-5-2-9-2-10z m52 274c-5-32-16-94-32-187c-1-6-4-11-8-16c-4-5-8-9-12-11c-4-3-9-6-16-9c-48-24-106-33-174-25c-47 5-85 18-113 39c-2 3-5 5-7 8c-2 3-3 6-5 10c-1 4-2 7-2 10c-1 2-1 6-2 11c-1 5-1 8-2 10c-1 10-4 24-7 43c-3 19-6 34-8 46c-2 12-4 26-7 42c-2 17-4 32-6 45c0 5 2 10 5 14c3 4 6 8 9 11c3 3 7 6 13 8c5 3 9 5 13 7c3 1 8 3 14 5c23 9 53 15 89 18c72 7 137 3 193-14c30-9 50-20 62-35c3-4 4-8 4-14c0-6 0-11-1-16z"/>
<glyph unicode="&#115;" d="M256 334l57-87l-114 0z m104-151l27 0l-131 197l-131-197l27 0l29 46l150 0z m115 73c0-40-9-77-29-110c-20-34-46-60-80-80c-33-20-70-29-110-29c-40 0-77 9-110 29c-34 20-60 46-80 80c-20 33-29 70-29 110c0 40 9 77 29 110c20 34 46 60 80 80c33 20 70 29 110 29c40 0 77-9 110-29c34-20 60-46 80-80c20-33 29-70 29-110z"/>
<glyph unicode="&#116;" d="M393 475c23 0 42-8 58-24c16-16 24-35 24-58l0-274c0-23-8-42-24-58c-16-16-35-24-58-24l-274 0c-23 0-42 8-58 24c-16 16-24 35-24 58l0 274c0 23 8 42 24 58c16 16 35 24 58 24z m-157-219c0 17-6 31-18 43c-12 12-26 18-43 18c-16 0-31-6-42-18c-12-12-18-26-18-43c0-17 6-31 18-43c11-12 26-18 42-18c17 0 31 6 43 18c12 12 18 26 18 43z m161 0c0 17-6 31-18 43c-11 12-26 18-42 18c-17 0-31-6-43-18c-12-12-18-26-18-43c0-17 6-31 18-43c12-12 26-18 43-18c16 0 31 6 42 18c12 12 18 26 18 43z"/>
<glyph unicode="&#66;" d="M91 347c0-5-1-9-5-12c-4-4-8-6-13-6c-5 0-9 2-13 6c-3 3-5 7-5 12c0 6 2 10 5 13c4 4 8 6 13 6c5 0 9-2 13-6c4-3 5-7 5-13z m46-146l0 183c0 5-2 9-5 13c-4 3-8 5-13 5l-82 0c-5 0-10-2-13-5c-4-4-6-8-6-13l0-183c0-5 2-9 6-13c3-3 8-5 13-5l82 0c5 0 9 2 13 5c3 4 5 8 5 13z m323 43c10-12 15-26 15-43c0-15-5-28-16-38c-11-11-24-17-38-17l-80 0c1-2 2-5 3-7c0-1 2-4 3-6c1-2 2-4 3-5c3-7 6-12 7-16c2-4 4-10 6-17c2-7 3-15 3-22c0-4 0-8 0-11c-1-3-1-7-2-13c-1-6-2-10-3-14c-2-4-4-8-7-13c-3-5-7-9-12-12c-4-3-10-5-17-7c-7-2-15-3-23-3c-5 0-10 2-13 5c-4 4-7 9-10 15c-3 5-4 10-5 15c-1 4-3 10-4 17c-2 8-3 14-4 17c-1 4-2 8-5 14c-2 6-5 10-9 14c-6 6-16 18-29 34c-9 12-19 24-28 35c-10 11-18 16-22 17c-5 0-9 2-12 5c-4 4-6 8-6 13l0 183c0 5 2 9 6 13c3 3 8 5 13 5c6 0 21 5 45 13c15 5 26 9 34 11c9 3 20 5 35 8c15 3 29 5 41 5l37 0c25-1 44-8 56-22c11-14 16-31 14-52c8-7 13-16 16-27c3-12 3-23 0-33c8-12 13-25 12-40c0-6-1-13-4-21z"/>
<glyph unicode="&#67;" d="M91 128c0 5-1 9-5 13c-4 3-8 5-13 5c-5 0-9-2-13-5c-3-4-5-8-5-13c0-5 2-9 5-13c4-4 8-5 13-5c5 0 9 1 13 5c4 4 5 8 5 13z m46 146l0-183c0-5-2-9-5-12c-4-4-8-6-13-6l-82 0c-5 0-10 2-13 6c-4 3-6 7-6 12l0 183c0 5 2 10 6 13c3 4 8 6 13 6l82 0c5 0 9-2 13-6c3-3 5-8 5-13z m338 0c0-16-5-30-15-42c3-9 4-16 4-22c1-14-4-28-12-39c3-11 3-22 0-34c-3-10-8-19-16-26c2-22-3-39-14-52c-12-15-31-22-56-22l-37 0c-12 0-26 1-41 4c-15 3-26 6-35 8c-8 3-19 7-34 12c-24 8-39 12-45 12c-5 0-10 2-13 6c-4 3-6 7-6 12l0 184c0 4 2 8 6 12c3 4 7 5 12 6c4 0 12 6 22 17c9 11 19 22 28 34c13 17 23 28 29 35c4 3 7 8 9 13c3 6 4 11 5 14c1 4 2 9 4 17c1 8 3 14 4 18c1 4 2 9 5 15c3 5 6 10 10 14c3 4 8 5 13 5c8 0 16-1 23-3c7-2 13-4 17-7c5-3 9-7 12-12c3-4 5-9 7-12c1-4 2-9 3-15c1-5 1-10 2-13c0-2 0-6 0-11c0-7-1-14-3-21c-2-8-4-13-5-18c-2-4-5-9-8-16c-1-1-2-2-3-5c-1-2-3-4-3-6c-1-2-2-4-3-7l80 0c14 0 27-5 38-16c11-11 16-24 16-39z"/>
<glyph unicode="&#68;" d="M421 429c0 12-4 23-12 34c-9 10-19 15-30 15c-10 0-18-4-24-11c-5-7-8-16-8-27c0-11 3-20 10-27c7-7 17-11 30-11c9 0 17 3 24 8c7 5 10 12 10 19z m-174-328c0-3-1-5-3-7l-91-91c-2-2-4-3-7-3c-2 0-4 1-6 3l-92 91c-3 3-3 6-2 10c2 4 5 6 9 6l55 0l0 393c0 3 1 5 2 6c2 2 4 3 7 3l55 0c2 0 5-1 6-3c2-1 3-3 3-6l0-393l55 0c2 0 5-1 6-3c2-2 3-4 3-6z m206-68l0-33l-134 0l0 33l47 0l0 123c0 1 0 3 0 5c1 3 1 4 1 5l0 5l-1 0l-2-4c-2-2-4-5-7-8l-18-17l-24 25l55 52l35 0l0-186z m8 380c0-12-1-24-4-35c-2-11-6-22-11-32c-6-11-12-20-20-28c-7-8-17-14-28-18c-11-5-23-7-36-7c-12 0-22 1-31 4c-5 2-9 3-12 4l11 33c3-2 6-3 9-3c7-3 14-4 21-4c16 0 29 5 39 17c9 11 16 25 19 41l-1 0c-4-4-10-8-17-10c-8-3-16-4-25-4c-20 0-36 6-49 20c-13 14-19 30-19 49c0 20 7 37 20 51c14 14 31 21 52 21c24 0 43-9 59-27c15-18 23-42 23-72z"/>
<glyph unicode="&#69;" d="M421 137c0 12-4 23-12 33c-9 10-19 15-30 15c-10 0-18-3-24-10c-5-7-8-16-8-27c0-11 3-20 10-27c7-8 17-11 30-11c9 0 17 2 24 7c7 6 10 12 10 20z m-174-36c0-3-1-5-3-7l-91-91c-2-2-4-3-7-3c-2 0-4 1-6 3l-92 91c-3 3-3 6-2 10c2 4 5 6 9 6l55 0l0 393c0 3 1 5 2 6c2 2 4 3 7 3l55 0c2 0 5-1 6-3c2-1 3-3 3-6l0-393l55 0c2 0 5-1 6-3c2-2 3-4 3-6z m214 19c0-12-1-23-4-34c-2-12-6-23-11-33c-6-10-12-19-20-27c-7-8-17-14-28-19c-11-5-23-7-36-7c-12 0-22 2-31 5c-5 1-9 3-12 4l11 32c3-1 6-2 9-3c7-2 14-4 21-4c16 0 29 6 39 17c9 11 16 25 19 42l-1 0c-4-5-10-8-17-11c-8-3-16-4-25-4c-20 0-36 7-49 20c-13 14-19 30-19 50c0 20 7 37 20 51c14 13 31 20 52 20c24 0 43-9 59-27c15-18 23-42 23-72z m-8 205l0-32l-134 0l0 32l47 0l0 124c0 1 0 3 0 5c1 2 1 4 1 5l0 4l-1 0l-2-3c-2-2-4-5-7-9l-18-16l-24 24l55 53l35 0l0-187z"/>
<glyph unicode="&#70;" d="M347 64l0-55c0-3 0-5-2-6c-2-2-4-3-7-3l-73 0c-3 0-5 1-6 3c-2 1-3 3-3 6l0 55c0 3 1 5 3 7c1 1 3 2 6 2l73 0c3 0 5-1 7-2c2-2 2-4 2-7z m-137 37c0-3-1-5-3-7l-91-91c-2-2-4-3-6-3c-3 0-5 1-7 3l-91 91c-3 3-4 6-2 10c1 4 4 6 8 6l55 0l0 393c0 3 1 5 3 6c1 2 4 3 6 3l55 0c3 0 5-1 7-3c1-1 2-3 2-6l0-393l55 0c3 0 5-1 7-3c1-2 2-4 2-6z m192 109l0-55c0-2-1-4-2-6c-2-2-4-3-7-3l-128 0c-3 0-5 1-6 3c-2 2-3 4-3 6l0 55c0 3 1 5 3 7c1 2 3 2 6 2l128 0c3 0 5 0 7-2c1-2 2-4 2-7z m55 147l0-55c0-3-1-5-2-7c-2-2-4-2-7-2l-183 0c-3 0-5 0-6 2c-2 2-3 4-3 7l0 55c0 2 1 4 3 6c1 2 3 3 6 3l183 0c3 0 5-1 7-3c1-2 2-4 2-6z m55 146l0-55c0-3-1-5-3-7c-1-1-3-2-6-2l-238 0c-3 0-5 1-6 2c-2 2-3 4-3 7l0 55c0 3 1 5 3 6c1 2 3 3 6 3l238 0c3 0 5-1 6-3c2-1 3-3 3-6z"/>
<glyph unicode="&#71;" d="M210 101c0-3-1-5-3-7l-91-91c-2-2-4-3-6-3c-3 0-5 1-7 3l-91 91c-3 3-4 6-2 10c1 4 4 6 8 6l55 0l0 393c0 3 1 5 3 6c1 2 4 3 6 3l55 0c3 0 5-1 7-3c1-1 2-3 2-6l0-393l55 0c3 0 5-1 7-3c1-2 2-4 2-6z m302-37l0-55c0-3-1-5-3-6c-1-2-3-3-6-3l-238 0c-3 0-5 1-6 3c-2 1-3 3-3 6l0 55c0 3 1 5 3 7c1 1 3 2 6 2l238 0c3 0 5-1 6-2c2-2 3-4 3-7z m-55 146l0-55c0-2-1-4-2-6c-2-2-4-3-7-3l-183 0c-3 0-5 1-6 3c-2 2-3 4-3 6l0 55c0 3 1 5 3 7c1 2 3 2 6 2l183 0c3 0 5 0 7-2c1-2 2-4 2-7z m-55 147l0-55c0-3-1-5-2-7c-2-2-4-2-7-2l-128 0c-3 0-5 0-6 2c-2 2-3 4-3 7l0 55c0 2 1 4 3 6c1 2 3 3 6 3l128 0c3 0 5-1 7-3c1-2 2-4 2-6z m-55 146l0-55c0-3 0-5-2-7c-2-1-4-2-7-2l-73 0c-3 0-5 1-6 2c-2 2-3 4-3 7l0 55c0 3 1 5 3 6c1 2 3 3 6 3l73 0c3 0 5-1 7-3c2-1 2-3 2-6z"/>
<glyph unicode="&#72;" d="M359 103l50 0l-20 62l-4 14c0 3 0 5 0 5l-2 0l0-5c0-1-1-2-1-6c-1-3-2-6-3-8z m-130-2c0-3-1-5-3-7l-91-91c-2-2-5-3-7-3c-2 0-4 1-7 3l-91 91c-3 3-4 6-2 10c2 4 4 6 9 6l54 0l0 393c0 3 1 5 3 6c2 2 4 3 7 3l54 0c3 0 5-1 7-3c2-1 3-3 3-6l0-393l54 0c3 0 5-1 7-3c2-2 3-4 3-6z m264-71l0-30l-82 0l0 30l21 0l-13 41l-70 0l-13-41l21 0l0-30l-82 0l0 30l20 0l66 189l46 0l66-189z m-26 329l0-66l-166 0l0 25l105 151c2 4 4 6 6 8l3 3l0 1c0 0-1 0-2-1c-1 0-1 0-2 0c-2 0-5-1-8-1l-67 0l0-32l-34 0l0 65l162 0l0-25l-105-152c-2-1-4-4-6-7l-4-3l0-1l4 1c2 0 5 0 9 0l71 0l0 34z"/>
<glyph unicode="&#73;" d="M359 395l50 0l-20 63l-4 13c0 3 0 5 0 6l-2 0l0-6c0 0-1-2-1-5c-1-3-2-6-3-8z m-130-294c0-3-1-5-3-7l-91-91c-2-2-5-3-7-3c-2 0-4 1-7 3l-91 91c-3 3-4 6-2 10c2 4 4 6 9 6l54 0l0 393c0 3 1 5 3 6c2 2 4 3 7 3l54 0c3 0 5-1 7-3c2-1 3-3 3-6l0-393l54 0c3 0 5-1 7-3c2-2 3-4 3-6z m238-34l0-67l-166 0l0 26l105 151c2 3 4 6 6 8l3 2l0 1c0 0-1 0-2 0c-1 0-1 0-2 0c-2-1-5-1-8-1l-67 0l0-33l-34 0l0 65l162 0l0-25l-105-151c-2-2-4-4-6-8l-4-3l0-1l4 1c2 0 5 1 9 1l71 0l0 34z m26 256l0-30l-82 0l0 30l21 0l-13 41l-70 0l-13-41l21 0l0-30l-82 0l0 30l20 0l66 189l46 0l66-189z"/>
<glyph unicode="&#74;" d="M366 119l0 18c0 3-1 5-3 7c-2 1-4 2-6 2l-202 0c-2 0-4-1-6-2c-2-2-3-4-3-7l0-18c0-3 1-5 3-7c2-1 4-2 6-2l202 0c2 0 4 1 6 2c2 2 3 4 3 7z m0 73l0 18c0 3-1 5-3 7c-2 2-4 2-6 2l-202 0c-2 0-4 0-6-2c-2-2-3-4-3-7l0-18c0-3 1-5 3-7c2-1 4-2 6-2l202 0c2 0 4 1 6 2c2 2 3 4 3 7z m73 101l0-229c0-8-3-14-8-19c-5-6-12-8-20-8l-310 0c-8 0-15 2-20 8c-5 5-8 11-8 19l0 384c0 8 3 14 8 19c5 6 12 8 20 8l155 0l0-155c0-8 3-14 8-19c5-6 12-8 19-8z m-1 36l-145 0l0 146c15-3 28-9 37-19l89-89c10-10 16-22 19-38z"/>
<glyph unicode="&#75;" d="M439 293l0-229c0-8-3-14-8-19c-5-6-12-8-20-8l-310 0c-8 0-15 2-20 8c-5 5-8 11-8 19l0 384c0 8 3 14 8 19c5 6 12 8 20 8l155 0l0-155c0-8 3-14 8-19c5-6 12-8 19-8z m-1 36l-145 0l0 146c15-3 28-9 37-19l89-89c10-10 16-22 19-38z"/>
<glyph unicode="&#76;" d="M407 329c3-35-9-59-38-74c22-5 39-15 50-29c11-14 15-35 13-61c-1-14-4-26-9-36c-5-10-11-19-19-25c-7-7-16-13-27-17c-11-4-23-8-35-10c-12-2-26-3-42-4l0-73l-44 0l0 72c-15 0-27 0-35 0l0-72l-44 0l0 73c-3 0-8 0-15 0c-7 0-12 0-16 0l-57 0l9 52l32 0c9 0 15 5 16 15l0 115l5 0c-1 0-3 0-5 0l0 82c-2 13-11 20-25 20l-32 0l0 46l61 0c12 0 21 0 27 0l0 72l44 0l0-70c16 0 28 0 35 0l0 70l44 0l0-72c15-1 29-3 40-6c12-3 23-7 33-13c9-5 17-13 23-22c6-9 9-20 11-33z m-62-156c0 7-1 13-4 19c-3 5-7 9-11 13c-4 3-9 6-16 9c-7 2-13 4-19 5c-6 1-13 2-21 2c-8 1-15 1-20 1c-4 0-11 0-18 0c-8 0-12 0-14 0l0-97c2 0 5 0 11 0c5 0 10 0 14 0c3 0 8 0 15 0c6 1 12 1 16 1c5 1 11 2 17 3c6 1 11 2 16 4c4 1 8 3 13 6c5 2 9 5 11 8c3 4 6 7 7 12c2 4 3 9 3 14z m-20 136c0 7-1 12-4 17c-2 5-5 9-8 12c-4 3-8 6-14 8c-6 2-11 4-16 5c-5 1-10 2-17 2c-7 1-13 1-17 1c-4 0-9 0-15 0c-7-1-10-1-12-1l0-87c1 0 5 0 10 0c6-1 10-1 13 0c4 0 8 0 15 0c6 0 11 1 15 2c5 0 10 2 15 3c6 1 10 3 14 5c4 2 7 5 11 8c3 3 6 6 7 11c2 4 3 9 3 14z"/>
<glyph unicode="&#77;" d="M147 171l23 85l-45 0l21-86c0 0 0 0 0-1c0 0 0 0 1 0c0 0 0 0 0 1c0 0 0 0 0 1z m33 122l10 36l-83 0l9-36z m55 0l40 0l-10 36l-20 0z m128-123l22 86l-46 0l23-85c0-1 0-1 0-1c1-1 1-1 1-1c0 0 0 0 0 0c0 1 0 1 0 1z m32 123l9 36l-85 0l10-36z m117-10l0-18c0-3-1-5-3-6c-1-2-3-3-6-3l-61 0l-47-176c-1-5-4-7-9-7l-45 0c-5 0-8 2-9 7l-47 176l-60 0l-48-176c-1-5-4-7-9-7l-45 0c-2 0-4 1-6 2c-1 1-2 3-3 5l-45 176l-60 0c-3 0-5 1-6 3c-2 1-3 3-3 6l0 18c0 3 1 5 3 7c1 2 3 3 6 3l50 0l-9 36l-41 0c-3 0-5 1-6 3c-2 1-3 4-3 6l0 19c0 2 1 4 3 6c1 2 3 3 6 3l31 0l-25 98c-1 3-1 6 1 8c2 2 5 3 8 3l39 0c5 0 8-2 9-6l25-103l103 0l28 103c1 4 4 6 9 6l36 0c4 0 7-2 8-6l28-103l105 0l26 103c1 4 4 6 9 6l39 0c3 0 6-1 8-3c2-2 2-5 1-8l-26-98l32 0c3 0 5-1 6-3c2-2 3-4 3-6l0-19c0-2-1-5-3-6c-1-2-3-3-6-3l-42 0l-9-36l51 0c3 0 5-1 6-3c2-2 3-4 3-7z"/>
<glyph unicode="&#78;" d="M494 174l0-9c0-26-9-47-27-65c-18-18-40-27-65-27l-36 0c-25 0-47 9-65 27c-18 18-27 39-27 65l0 137l-64 0c0-20-1-38-4-55c-2-17-5-31-9-44c-3-13-8-25-13-36c-6-12-12-21-17-29c-5-8-11-15-19-22c-8-7-14-13-20-17c-5-4-12-8-21-12c-9-5-15-8-20-9c-4-2-10-5-18-8c-1 0-4-1-10-3c-1-1-2-1-3-1c-4 0-7 2-9 6l-20 51c-1 2-1 4 0 7c1 2 3 4 5 5c1 0 3 1 6 2c2 1 4 1 5 2c6 2 10 4 13 5c3 1 7 3 13 6c5 2 10 5 13 7c3 2 7 5 12 9c5 4 9 8 11 12c3 5 7 10 10 16c4 6 7 12 9 19c2 7 4 15 6 24c3 9 4 19 5 30c1 10 2 22 2 35l-73 0c-3 0-5 1-7 2c-1 2-2 4-2 7l0 46c0 2 1 4 2 6c2 2 4 3 7 3l347 0c3 0 5-1 7-3c2-2 3-4 3-6l0-46c0-3-1-5-3-7c-2-1-4-2-7-2l-64 0l0-147c0-5 2-9 6-12c3-4 8-6 13-6l36 0c5 0 10 2 13 6c4 3 6 7 6 12l0 19c0 2 0 5 2 6c2 2 4 3 7 3l55 0c2 0 4-1 6-3c2-1 3-4 3-6z m-110 292l0-45c0-3-1-5-3-7c-1-2-3-3-6-3l-274 0c-3 0-5 1-7 3c-2 2-3 4-3 7l0 45c0 3 1 5 3 7c2 2 4 2 7 2l274 0c3 0 5 0 6-2c2-2 3-4 3-7z"/>
<glyph unicode="&#79;" d="M282 73l-50 0c-2 0-4 1-6 3c-2 1-3 4-3 6l0 95l-82 0c-2 0-5 0-6 2c-2 2-3 4-3 7l0 29c0 3 1 5 3 7c1 1 4 2 6 2l82 0l0 25l-82 0c-2 0-5 0-6 2c-2 2-3 4-3 7l0 29c0 3 1 5 3 7c1 2 4 3 6 3l61 0l-92 165c-1 3-1 6 0 9c2 3 5 4 8 4l56 0c3 0 6-1 8-5l62-121c3-7 9-19 16-36c1 5 4 11 8 20c4 8 7 14 8 17l55 120c1 4 4 5 8 5l55 0c3 0 5-1 7-4c2-3 2-6 1-9l-90-165l62 0c2 0 4-1 6-3c2-2 3-4 3-7l0-29c0-3-1-5-3-7c-2-2-4-2-6-2l-83 0l0-25l83 0c2 0 4-1 6-2c2-2 3-4 3-7l0-29c0-3-1-5-3-7c-2-2-4-2-6-2l-83 0l0-95c0-2-1-4-3-6c-2-2-4-3-6-3z"/>
<glyph unicode="&#80;" d="M384 378l0-29c0-3-1-5-2-7c-2-2-4-3-7-3l-48 0c-4-27-17-49-37-66c-20-18-46-28-79-32c32-34 76-85 132-153c2-3 3-6 1-10c-2-3-5-5-9-5l-55 0c-3 0-6 1-7 4c-59 69-106 124-143 163c-1 1-2 4-2 6l0 36c0 3 1 5 2 7c2 2 4 2 7 2l32 0c25 0 45 5 61 13c15 8 25 20 29 35l-122 0c-3 0-5 1-7 3c-1 2-2 4-2 7l0 29c0 2 1 5 2 6c2 2 4 3 7 3l118 0c-11 21-37 32-77 32l-41 0c-3 0-5 1-7 3c-1 2-2 4-2 6l0 38c0 3 1 5 2 7c2 2 4 2 7 2l238 0c2 0 4 0 6-2c2-2 3-4 3-7l0-29c0-3-1-5-3-6c-2-2-4-3-6-3l-67 0c9-12 15-25 18-41l49 0c3 0 5-1 7-3c1-1 2-4 2-6z"/>
<glyph unicode="&#81;" d="M389 173c0-29-9-54-28-75c-19-21-44-34-74-39l0-50c0-3-1-5-3-6c-1-2-4-3-6-3l-39 0c-2 0-4 1-6 3c-2 2-3 4-3 6l0 50c-13 2-25 5-36 9c-12 4-22 8-29 13c-8 4-15 9-22 13c-6 5-10 9-13 11c-2 2-4 4-5 5c-3 4-3 8 0 12l29 39c1 1 4 3 7 3c2 0 5 0 6-3l1 0c22-19 45-31 69-36c7-1 15-2 22-2c15 0 29 4 40 12c12 8 18 20 18 35c0 5-2 10-4 15c-3 5-6 9-10 12c-4 3-9 7-17 11c-7 4-14 7-19 9c-5 2-12 5-22 9c-8 3-14 6-18 7c-4 2-10 5-18 8c-7 3-13 6-17 9c-5 2-10 6-17 10c-6 4-11 8-15 12c-4 4-8 9-12 14c-5 6-8 11-10 17c-3 5-5 12-6 19c-2 7-3 14-3 22c0 26 9 49 28 69c19 20 43 33 73 38l0 52c0 2 1 4 3 6c2 2 4 3 6 3l39 0c2 0 5-1 6-3c2-1 3-3 3-6l0-50c11-2 21-4 31-7c11-3 19-6 25-10c7-3 13-6 18-10c6-4 10-7 12-9c1-1 3-2 4-4c3-3 4-7 1-10l-23-42c-1-3-4-5-6-5c-3 0-6 0-8 2c-1 1-2 2-4 4c-2 1-6 4-11 7c-6 4-11 7-17 9c-6 3-13 6-21 8c-9 2-17 3-25 3c-18 0-33-4-44-12c-12-8-17-19-17-32c0-5 1-9 2-14c2-4 5-8 9-11c4-4 7-7 11-10c3-2 9-5 16-9c7-3 13-6 17-7c5-2 11-5 20-8c10-4 18-7 23-9c6-2 13-6 22-10c9-5 16-9 22-12c5-4 11-9 17-15c7-6 12-12 15-18c4-6 7-13 9-22c3-8 4-17 4-27z"/>
<glyph unicode="&#82;" d="M401 187l0-105c0-2-1-5-2-6c-2-2-4-3-7-3l-273 0c-3 0-5 1-7 3c-1 1-2 4-2 6l0 43c0 3 1 5 2 7c2 1 4 2 7 2l28 0l0 110l-28 0c-2 0-4 1-6 2c-2 2-3 4-3 7l0 37c0 3 1 5 3 7c2 2 4 2 6 2l28 0l0 64c0 33 11 60 35 81c23 21 53 31 90 31c35 0 67-11 95-35c2-2 3-4 3-6c0-3 0-5-2-7l-29-36c-2-2-4-3-6-3c-3-1-5 0-7 2c-1 1-3 2-7 5c-4 3-11 6-20 9c-9 4-18 5-27 5c-16 0-29-4-39-13c-10-9-15-21-15-35l0-62l87 0c3 0 5 0 7-2c2-2 3-4 3-7l0-37c0-3-1-5-3-7c-2-1-4-2-7-2l-87 0l0-109l119 0l0 52c0 3 0 5 2 7c2 1 4 2 7 2l46 0c3 0 5-1 7-2c1-2 2-4 2-7z"/>
<glyph unicode="&#83;" d="M347 256c0-6-2-11-7-15l-128-91c-6-5-12-5-19-2c-7 4-10 9-10 17l0 182c0 8 3 13 10 17c7 3 13 3 19-2l128-91c5-4 7-9 7-15z m55-137l0 274c0 3-1 5-2 7c-2 1-4 2-7 2l-274 0c-3 0-5-1-7-2c-1-2-2-4-2-7l0-274c0-3 1-5 2-7c2-1 4-2 7-2l274 0c3 0 5 1 7 2c1 2 2 4 2 7z m73 274l0-274c0-23-8-42-24-58c-16-16-35-24-58-24l-274 0c-23 0-42 8-58 24c-16 16-24 35-24 58l0 274c0 23 8 42 24 58c16 16 35 24 58 24l274 0c23 0 42-8 58-24c16-16 24-35 24-58z"/>
<glyph unicode="&#84;" d="M389 139l10-46c0-2 0-4-1-6c-1-2-3-4-5-4l-2-1c0 0-1 0-3-1c-1 0-2 0-4-1c-2-1-4-1-6-2c-3 0-5-1-8-1c-2 0-5-1-8-1c-3-1-6-1-10-2c-3 0-6 0-10-1c-4 0-8 0-11 0c-45 0-84 13-117 37c-33 25-56 59-68 101l-27 0c-3 0-5 1-7 3c-1 1-2 4-2 6l0 32c0 3 1 5 2 7c2 2 4 2 7 2l19 0c-1 11-1 21 0 30l-19 0c-3 0-5 1-7 3c-1 2-2 4-2 7l0 32c0 3 1 5 2 7c2 1 4 2 7 2l28 0c13 40 36 72 69 97c34 24 72 36 115 36c19 0 38-2 55-6c2-1 4-2 6-4c1-3 1-5 1-7l-12-46c-1-2-2-4-4-5c-3-2-5-2-7-1l-1 0c-1 0-2 1-4 1l-5 1c0 0-2 0-6 1c-4 1-7 1-8 1c0 0-3 0-8 1c-5 0-8 0-8 0c-24 0-46-6-65-18c-19-13-33-29-43-51l134 0c3 0 5-1 7-3c2-2 3-5 2-8l-7-32c-1-5-4-8-9-8l-139 0c-1-7-1-17 0-30l131 0c3 0 5-1 7-3c2-2 2-5 2-8l-7-32c-1-2-2-4-3-5c-2-1-4-2-6-2l-111 0c10-22 24-40 43-53c19-13 41-20 65-20c4 0 7 0 11 1c3 0 6 0 9 1c3 0 6 1 9 1c2 0 5 1 7 1c2 1 3 1 5 2l3 1l2 0c2 1 5 1 7 0c3-2 4-4 5-6z"/>
<glyph unicode="&#85;" d="M364 193c-4-7-9-10-17-10l-182 0c-8 0-13 3-17 10c-3 7-3 13 2 19l91 128c4 5 9 7 15 7c6 0 11-2 15-7l91-128c5-6 5-12 2-19z m38-74l0 274c0 3-1 5-2 7c-2 1-4 2-7 2l-274 0c-3 0-5-1-7-2c-1-2-2-4-2-7l0-274c0-3 1-5 2-7c2-1 4-2 7-2l274 0c3 0 5 1 7 2c1 2 2 4 2 7z m73 274l0-274c0-23-8-42-24-58c-16-16-35-24-58-24l-274 0c-23 0-42 8-58 24c-16 16-24 35-24 58l0 274c0 23 8 42 24 58c16 16 35 24 58 24l274 0c23 0 42-8 58-24c16-16 24-35 24-58z"/>
<glyph unicode="&#86;" d="M364 319c3-7 3-13-2-19l-91-128c-4-5-9-7-15-7c-6 0-11 2-15 7l-91 128c-5 6-5 12-2 19c4 7 9 10 17 10l182 0c8 0 13-3 17-10z m38-200l0 274c0 3-1 5-2 7c-2 1-4 2-7 2l-274 0c-3 0-5-1-7-2c-1-2-2-4-2-7l0-274c0-3 1-5 2-7c2-1 4-2 7-2l274 0c3 0 5 1 7 2c1 2 2 4 2 7z m73 274l0-274c0-23-8-42-24-58c-16-16-35-24-58-24l-274 0c-23 0-42 8-58 24c-16 16-24 35-24 58l0 274c0 23 8 42 24 58c16 16 35 24 58 24l274 0c23 0 42-8 58-24c16-16 24-35 24-58z"/>
<glyph unicode="&#87;" d="M219 201l74 37l-74 36z m110 169l0-155l-146-73l0 155z m82-114c0 28-7 54-20 78c-14 24-33 43-57 57c-24 13-50 20-78 20c-28 0-54-7-78-20c-24-14-43-33-57-57c-13-24-20-50-20-78c0-28 7-54 20-78c14-24 33-43 57-57c24-13 50-20 78-20c28 0 54 7 78 20c24 14 43 33 57 57c13 24 20 50 20 78z m64 0c0-40-9-77-29-110c-20-34-46-60-80-80c-33-20-70-29-110-29c-40 0-77 9-110 29c-34 20-60 46-80 80c-20 33-29 70-29 110c0 40 9 77 29 110c20 34 46 60 80 80c33 20 70 29 110 29c40 0 77-9 110-29c34-20 60-46 80-80c20-33 29-70 29-110z"/>
<glyph unicode="&#88;" d="M324 197l100 101c4 4 6 8 6 13c0 5-2 9-6 13l-100 100c-6 6-13 8-20 4c-8-3-11-9-11-17l0-45c-23 0-44-2-62-6c-19-4-34-8-47-14c-12-6-23-14-32-23c-9-9-17-18-22-27c-5-9-10-20-13-31c-3-12-5-23-6-32c-1-10-1-20-1-32c0-34 16-73 47-115c2-3 5-4 8-4c1 0 2 1 3 1c4 2 6 5 6 10c-9 67-3 112 17 135c9 10 22 17 38 21c16 5 37 7 64 7l0-46c0-8 3-13 11-17c2-1 5-1 7-1c5 0 9 2 13 5z m151 196l0-274c0-23-8-42-24-58c-16-16-35-24-58-24l-274 0c-23 0-42 8-58 24c-16 16-24 35-24 58l0 274c0 23 8 42 24 58c16 16 35 24 58 24l274 0c23 0 42-8 58-24c16-16 24-35 24-58z"/>
<glyph unicode="&#89;" d="M402 247l0 137c0 5-2 9-5 13c-4 3-8 5-13 5l-137 0c-8 0-14-3-17-11c-3-8-2-14 4-20l41-41l-152-153c-4-3-6-7-6-12c0-5 2-10 6-13l29-29c3-4 8-6 13-6c5 0 9 2 12 6l153 152l41-41c4-4 8-5 13-5c2 0 5 0 7 1c8 3 11 9 11 17z m73 146l0-274c0-23-8-42-24-58c-16-16-35-24-58-24l-274 0c-23 0-42 8-58 24c-16 16-24 35-24 58l0 274c0 23 8 42 24 58c16 16 35 24 58 24l274 0c23 0 42-8 58-24c16-16 24-35 24-58z"/>
<glyph unicode="&#90;" d="M152 195l43-43l-14-15l-16 0l0 28l-28 0l0 16z m118 112c3-3 3-5-1-9l-83-83c-3-3-6-3-8-1c-3 3-3 6 1 9l83 83c3 3 6 4 8 1z m-78-197l155 155l-82 82l-155-155l0-82z m174 173l26 27c5 5 8 12 8 19c0 8-3 14-8 20l-43 43c-6 5-12 8-20 8c-7 0-14-3-19-8l-27-26z m109 110l0-274c0-23-8-42-24-58c-16-16-35-24-58-24l-274 0c-23 0-42 8-58 24c-16 16-24 35-24 58l0 274c0 23 8 42 24 58c16 16 35 24 58 24l274 0c23 0 42-8 58-24c16-16 24-35 24-58z"/>
<glyph unicode="&#48;" d="M232 141l176 175c3 4 5 8 5 13c0 5-2 9-5 13l-29 29c-4 4-8 6-13 6c-5 0-10-2-13-6l-134-133l-60 60c-3 4-8 5-13 5c-5 0-9-1-13-5l-29-29c-3-4-5-8-5-13c0-5 2-9 5-13l103-102c3-4 7-6 12-6c5 0 10 2 13 6z m243 252l0-274c0-23-8-42-24-58c-16-16-35-24-58-24l-274 0c-23 0-42 8-58 24c-16 16-24 35-24 58l0 274c0 23 8 42 24 58c16 16 35 24 58 24l274 0c23 0 42-8 58-24c16-16 24-35 24-58z"/>
<glyph unicode="&#49;" d="M384 283l0-18c0-3-1-5-3-6c-1-2-3-3-6-3l-238 0c-3 0-5 1-6 3c-2 1-3 3-3 6l0 18c0 3 1 5 3 7c1 2 3 3 6 3l238 0c3 0 5-1 6-3c2-2 3-4 3-7z m37-128l0 238c0 13-5 23-14 32c-9 9-20 14-32 14l-238 0c-12 0-23-5-32-14c-9-9-14-19-14-32l0-238c0-12 5-23 14-32c9-9 20-13 32-13l238 0c12 0 23 4 32 13c9 9 14 20 14 32z m36 238l0-238c0-22-8-42-24-58c-16-16-35-24-58-24l-238 0c-23 0-42 8-58 24c-16 16-24 36-24 58l0 238c0 23 8 42 24 58c16 16 35 24 58 24l238 0c23 0 42-8 58-24c16-16 24-35 24-58z"/>
<glyph unicode="&#50;" d="M401 340c-4-7-9-11-17-11l-55 0l0-247c0-2-1-5-2-6c-2-2-4-3-7-3l-201 0c-4 0-7 2-8 5c-2 4-2 7 1 10l45 55c2 2 5 3 8 3l91 0l0 183l-55 0c-7 0-13 4-16 11c-4 7-3 13 2 19l92 110c3 4 8 6 14 6c5 0 10-2 14-6l91-110c5-6 6-12 3-19z"/>
<glyph unicode="&#51;" d="M293 383l90-90l-164-164l-90 90z m-61-280l177 177c3 3 5 8 5 13c0 5-2 9-5 12l-104 104c-3 3-7 5-12 5c-6 0-10-2-13-5l-177-177c-3-3-5-8-5-13c0-5 2-9 5-12l104-104c3-3 7-5 12-5c6 0 10 2 13 5z m254 182l-259-259c-7-7-16-11-26-11c-10 0-19 4-26 11l-36 36c11 10 16 23 16 39c0 15-5 28-16 38c-10 11-23 16-38 16c-16 0-29-5-39-16l-36 36c-7 7-11 16-11 26c0 10 4 19 11 26l259 259c7 7 16 11 26 11c10 0 19-4 26-11l36-36c-11-10-16-23-16-39c0-15 5-28 16-38c10-11 23-16 38-16c16 0 29 5 39 16l36-36c7-7 11-16 11-26c0-10-4-19-11-26z"/>
<glyph unicode="&#52;" d="M402 238l0 36c0 5-2 10-5 13c-4 4-8 6-13 6l-256 0c-5 0-9-2-13-6c-3-3-5-8-5-13l0-36c0-5 2-10 5-13c4-4 8-6 13-6l256 0c5 0 9 2 13 6c3 3 5 8 5 13z m73 155l0-274c0-23-8-42-24-58c-16-16-35-24-58-24l-274 0c-23 0-42 8-58 24c-16 16-24 35-24 58l0 274c0 23 8 42 24 58c16 16 35 24 58 24l274 0c23 0 42-8 58-24c16-16 24-35 24-58z"/>
<glyph unicode="&#53;" d="M256 475c40 0 77-9 110-29c34-20 60-46 80-80c20-33 29-70 29-110c0-40-9-77-29-110c-20-34-46-60-80-80c-33-20-70-29-110-29c-40 0-77 9-110 29c-34 20-60 46-80 80c-20 33-29 70-29 110c0 40 9 77 29 110c20 34 46 60 80 80c33 20 70 29 110 29z m110-235c6 4 9 9 9 16c0 7-3 12-9 16l-156 91c-6 4-12 4-18 0c-6-3-9-9-9-16l0-182c0-7 3-13 9-16c3-2 6-3 9-3c3 0 6 1 9 3z"/>
<glyph unicode="&#54;" d="M165 302l0-55c0-8-3-14-8-20c-6-5-12-8-20-8l-55 0c-7 0-14 3-19 8c-5 6-8 12-8 20l0 55c0 7 3 14 8 19c5 5 12 8 19 8l55 0c8 0 14-3 20-8c5-5 8-12 8-19z m146 0l0-55c0-8-3-14-8-20c-5-5-12-8-20-8l-54 0c-8 0-15 3-20 8c-5 6-8 12-8 20l0 55c0 7 3 14 8 19c5 5 12 8 20 8l54 0c8 0 15-3 20-8c5-5 8-12 8-19z m146 0l0-55c0-8-3-14-8-20c-5-5-12-8-19-8l-55 0c-8 0-14 3-20 8c-5 6-8 12-8 20l0 55c0 7 3 14 8 19c6 5 12 8 20 8l55 0c7 0 14-3 19-8c5-5 8-12 8-19z"/>
<glyph unicode="&#55;" d="M329 256c0-20-7-37-21-52c-15-14-32-21-52-21c-20 0-37 7-52 21c-14 15-21 32-21 52c0 20 7 37 21 52c15 14 32 21 52 21c20 0 37-7 52-21c14-15 21-32 21-52z m37 0c0 30-11 56-32 78c-22 21-48 32-78 32c-30 0-56-11-78-32c-21-22-32-48-32-78c0-30 11-56 32-78c22-21 48-32 78-32c30 0 56 11 78 32c21 22 32 48 32 78z m36 0c0-40-14-75-43-103c-28-29-63-43-103-43c-40 0-75 14-103 43c-29 28-43 63-43 103c0 40 14 75 43 103c28 29 63 43 103 43c40 0 75-14 103-43c29-28 43-63 43-103z m37 0c0 25-5 48-15 71c-9 23-22 42-39 58c-16 17-35 30-58 39c-23 10-46 15-71 15c-25 0-48-5-71-15c-23-9-42-22-58-39c-17-16-30-35-39-58c-10-23-15-46-15-71c0-25 5-48 15-71c9-23 22-42 39-58c16-17 35-30 58-39c23-10 46-15 71-15c25 0 48 5 71 15c23 9 42 22 58 39c17 16 30 35 39 58c10 23 15 46 15 71z m36 0c0-40-9-77-29-110c-20-34-46-60-80-80c-33-20-70-29-110-29c-40 0-77 9-110 29c-34 20-60 46-80 80c-20 33-29 70-29 110c0 40 9 77 29 110c20 34 46 60 80 80c33 20 70 29 110 29c40 0 77-9 110-29c34-20 60-46 80-80c20-33 29-70 29-110z"/>
<glyph unicode="&#56;" d="M393 293c8 0 14-3 20-8c5-6 8-12 8-20l0-164c0-8-3-15-8-20c-6-5-12-8-20-8l-274 0c-8 0-14 3-20 8c-5 5-8 12-8 20l0 164c0 8 3 14 8 20c6 5 12 8 20 8l9 0l0 91c0 35 13 65 38 90c25 25 55 38 90 38c35 0 65-13 90-38c25-25 38-55 38-90c0-5-2-9-5-13c-4-3-8-5-13-5l-19 0c-5 0-9 2-12 5c-4 4-6 8-6 13c0 20-7 37-21 52c-15 14-32 21-52 21c-20 0-37-7-52-21c-14-15-21-32-21-52l0-91z"/>
<glyph unicode="&#57;" d="M274 439c0 5-2 9-5 13c-4 3-8 5-13 5c-5 0-9-2-13-5c-3-4-5-8-5-13c0-5 2-9 5-13c4-4 8-5 13-5c5 0 9 1 13 5c3 4 5 8 5 13z m238-265l0-101c0-4-2-7-6-8c-1-1-2-1-3-1c-3 0-5 1-7 3l-26 26c-23-27-53-49-91-65c-38-15-79-23-123-23c-44 0-85 8-123 23c-38 16-68 38-91 65l-26-26c-2-2-4-3-7-3c-1 0-2 0-3 1c-4 1-6 4-6 8l0 101c0 2 1 5 3 6c1 2 3 3 6 3l101 0c4 0 7-2 8-6c2-3 1-7-2-10l-28-28c12-18 31-32 54-44c23-12 49-20 77-24l0 185l-54 0c-5 0-10 2-13 5c-4 4-6 8-6 13l0 37c0 5 2 9 6 13c3 3 8 5 13 5l54 0l0 47c-11 6-19 15-26 26c-7 11-10 24-10 37c0 20 7 37 21 52c15 14 32 21 52 21c20 0 37-7 52-21c14-15 21-32 21-52c0-13-3-26-10-37c-7-11-15-20-26-26l0-47l54 0c5 0 10-2 13-5c4-4 6-8 6-13l0-37c0-5-2-9-6-13c-3-3-8-5-13-5l-54 0l0-185c28 4 54 12 77 24c23 12 42 26 54 44l-28 28c-3 3-4 7-2 10c1 4 4 6 8 6l101 0c3 0 5-1 6-3c2-1 3-4 3-6z"/>
<glyph unicode="&#33;" d="M378 341l4 50l-252 0l13-152l175 0l-6-65l-57-15l-56 15l-3 40l-50 0l6-80l103-28l2 0l0 0l102 28l14 156l-184 0l-4 51z m-323 134l402 0l-36-410l-166-47l-164 47z"/>
<glyph unicode="&#34;" d="M269 141l130 130c3 3 5 7 5 12c0 5-2 10-5 13l-30 29c-3 4-7 6-12 6c-5 0-10-2-13-6l-88-87l-88 87c-3 4-8 6-13 6c-5 0-9-2-12-6l-30-29c-3-3-5-8-5-13c0-5 2-9 5-12l130-130c4-4 8-6 13-6c5 0 9 2 13 6z m206 115c0-40-9-77-29-110c-20-34-46-60-80-80c-33-20-70-29-110-29c-40 0-77 9-110 29c-34 20-60 46-80 80c-20 33-29 70-29 110c0 40 9 77 29 110c20 34 46 60 80 80c33 20 70 29 110 29c40 0 77-9 110-29c34-20 60-46 80-80c20-33 29-70 29-110z"/>
<glyph unicode="&#35;" d="M369 187l30 29c3 3 5 8 5 13c0 5-2 9-5 12l-130 130c-4 4-8 6-13 6c-5 0-9-2-13-6l-130-130c-3-3-5-7-5-12c0-5 2-10 5-13l30-29c3-4 7-6 12-6c5 0 10 2 13 6l88 87l88-87c3-4 8-6 13-6c5 0 9 2 12 6z m106 69c0-40-9-77-29-110c-20-34-46-60-80-80c-33-20-70-29-110-29c-40 0-77 9-110 29c-34 20-60 46-80 80c-20 33-29 70-29 110c0 40 9 77 29 110c20 34 46 60 80 80c33 20 70 29 110 29c40 0 77-9 110-29c34-20 60-46 80-80c20-33 29-70 29-110z"/>
<glyph unicode="&#36;" d="M241 113l130 130c4 4 6 8 6 13c0 5-2 9-6 13l-130 130c-3 3-7 5-12 5c-5 0-10-2-13-5l-29-30c-4-3-6-7-6-12c0-5 2-10 6-13l87-88l-87-88c-4-3-6-8-6-13c0-5 2-9 6-12l29-30c3-3 8-5 13-5c5 0 9 2 12 5z m234 143c0-40-9-77-29-110c-20-34-46-60-80-80c-33-20-70-29-110-29c-40 0-77 9-110 29c-34 20-60 46-80 80c-20 33-29 70-29 110c0 40 9 77 29 110c20 34 46 60 80 80c33 20 70 29 110 29c40 0 77-9 110-29c34-20 60-46 80-80c20-33 29-70 29-110z"/>
<glyph unicode="&#37;" d="M296 113l29 30c4 3 6 7 6 12c0 5-2 10-6 13l-87 88l87 88c4 3 6 8 6 13c0 5-2 9-6 12l-29 30c-3 3-8 5-13 5c-5 0-9-2-12-5l-130-130c-4-4-6-8-6-13c0-5 2-9 6-13l130-130c3-3 7-5 12-5c5 0 10 2 13 5z m179 143c0-40-9-77-29-110c-20-34-46-60-80-80c-33-20-70-29-110-29c-40 0-77 9-110 29c-34 20-60 46-80 80c-20 33-29 70-29 110c0 40 9 77 29 110c20 34 46 60 80 80c33 20 70 29 110 29c40 0 77-9 110-29c34-20 60-46 80-80c20-33 29-70 29-110z"/>
<glyph unicode="&#38;" d="M430 384c0 8-3 14-8 19c-6 6-12 8-20 8c-7 0-14-2-19-8c-5-5-8-11-8-19c0-8 3-14 8-19c5-6 12-8 19-8c8 0 14 2 20 8c5 5 8 11 8 19z m64 82c0-47-7-88-22-123c-14-34-38-69-72-103c-16-15-34-32-56-50l-6-108c0-3-2-6-4-8l-110-64c-1 0-3-1-5-1c-2 0-4 1-6 3l-18 18c-3 3-4 6-3 9l25 79l-81 80l-79-24c0 0-1 0-2 0c-3 0-5 1-7 2l-18 19c-3 3-4 7-1 11l64 109c1 3 4 5 7 5l108 6c19 21 35 40 51 55c35 36 69 61 102 74c32 14 73 20 123 20c3 0 5 0 7-2c2-2 3-4 3-7z"/>
<glyph unicode="&#39;" d="M201 457c0 5-2 9-5 13c-4 4-8 5-13 5c-5 0-9-1-13-5c-4-4-5-8-5-13c0-5 1-9 5-13c4-3 8-5 13-5c5 0 9 2 13 5c3 4 5 8 5 13z m256 9l0-91c0-3-1-6-3-7c-2-2-4-2-6-2c-1 0-1 0-2 0l-128 27c-2 1-4 2-5 4c-1 1-2 3-2 5l-73 0l0-29c21-4 38-15 52-32c14-16 21-36 21-58l0-228c0-5-2-9-6-13c-3-4-7-5-12-5l-147 0c-5 0-9 1-13 5c-3 4-5 8-5 13l0 228c0 21 6 39 18 55c12 16 27 27 46 33l0 31l-9 0c-11 0-22-2-33-6c-11-5-19-10-26-16c-7-5-13-12-19-19c-6-7-10-12-12-15c-1-3-3-5-4-7c-3-7-8-10-16-10c-3 0-6 1-8 2c-5 2-8 6-9 11c-2 4-1 9 1 14c1 2 2 4 4 7c2 3 5 8 11 15c5 8 11 14 17 20c6 7 14 13 24 20c10 6 21 11 31 15c-4 8-7 16-7 24c0 13 5 23 14 32c9 9 19 14 32 14c12 0 23-5 32-14c9-9 14-19 14-32c0-6-2-12-4-18l86 0c0 2 1 4 2 6c1 1 3 2 5 3l128 27c1 0 1 0 2 0c2 0 4 0 6-2c2-1 3-4 3-7z"/>
<glyph unicode="&#40;" d="M55 37l402 0l0 292l-402 0z m110 347l0 82c0 3-1 5-3 7c-2 2-4 2-7 2l-18 0c-3 0-5 0-6-2c-2-2-3-4-3-7l0-82c0-3 1-5 3-7c1-1 3-2 6-2l18 0c3 0 5 1 7 2c2 2 3 4 3 7z m219 0l0 82c0 3-1 5-3 7c-1 2-3 2-6 2l-18 0c-3 0-5 0-7-2c-2-2-3-4-3-7l0-82c0-3 1-5 3-7c2-1 4-2 7-2l18 0c3 0 5 1 6 2c2 2 3 4 3 7z m110 18l0-365c0-10-4-19-11-26c-7-7-16-11-26-11l-402 0c-10 0-19 4-26 11c-7 7-11 16-11 26l0 365c0 10 4 19 11 26c7 7 16 11 26 11l36 0l0 27c0 13 5 24 14 33c9 9 20 13 32 13l18 0c13 0 24-4 33-13c9-9 13-20 13-33l0-27l110 0l0 27c0 13 4 24 13 33c9 9 20 13 33 13l18 0c12 0 23-4 32-13c9-9 14-20 14-33l0-27l36 0c10 0 19-4 26-11c7-7 11-16 11-26z"/>
<glyph unicode="&#41;" d="M384 238l0 183l-128 0l0-325c23 12 43 25 61 39c45 35 67 69 67 103z m55 219l0-219c0-17-3-33-10-49c-6-16-14-30-23-43c-10-12-21-24-34-36c-13-12-25-22-36-30c-11-8-23-15-35-22c-12-7-20-12-25-14c-5-2-10-4-13-6c-2-1-4-1-7-1c-3 0-5 0-7 1c-3 2-8 4-13 6c-5 2-13 7-25 14c-12 7-24 14-35 22c-11 8-23 18-36 30c-13 12-24 24-34 36c-9 13-17 27-23 43c-7 16-10 32-10 49l0 219c0 5 2 9 6 13c3 4 7 5 12 5l330 0c5 0 9-1 12-5c4-4 6-8 6-13z"/>
<glyph unicode="&#42;" d="M132 242l-29-29c-8 20-12 40-12 61l0 37c0 5 2 9 6 13c3 3 8 5 13 5c5 0 9-2 13-5c3-4 5-8 5-13l0-37c0-10 1-21 4-32z m319 172l-104-103l0-37c0-25-9-46-26-64c-18-18-40-27-65-27c-10 0-21 2-31 5l-28-27c19-10 38-15 59-15c35 0 65 13 90 38c25 25 38 55 38 90l0 37c0 5 2 9 5 13c4 3 8 5 13 5c5 0 10-2 13-5c4-4 6-8 6-13l0-37c0-42-14-78-43-110c-28-31-62-49-104-53l0-38l73 0c5 0 10-2 13-5c4-4 6-8 6-13c0-5-2-9-6-13c-3-4-8-5-13-5l-182 0c-5 0-10 1-13 5c-4 4-6 8-6 13c0 5 2 9 6 13c3 3 8 5 13 5l73 0l0 38c-24 2-46 10-67 23l-73-73c-2-1-4-2-7-2c-2 0-4 1-6 2l-24 24c-1 2-2 4-2 6c0 3 1 5 2 7l353 353c2 1 4 2 7 2c2 0 4-1 6-2l24-24c1-2 2-4 2-6c0-3-1-5-2-7z m-109 38l-177-178l0 147c0 25 9 46 26 64c18 18 40 27 65 27c19 0 37-6 53-17c15-11 27-26 33-43z"/>
<glyph unicode="&#43;" d="M421 311l0-37c0-42-14-78-43-110c-28-31-62-49-104-53l0-38l73 0c5 0 10-2 13-5c4-4 6-8 6-13c0-5-2-9-6-13c-3-4-8-5-13-5l-182 0c-5 0-10 1-13 5c-4 4-6 8-6 13c0 5 2 9 6 13c3 3 8 5 13 5l73 0l0 38c-42 4-76 22-104 53c-29 32-43 68-43 110l0 37c0 5 2 9 6 13c3 3 8 5 13 5c5 0 9-2 13-5c3-4 5-8 5-13l0-37c0-35 13-65 38-90c25-25 55-38 90-38c35 0 65 13 90 38c25 25 38 55 38 90l0 37c0 5 2 9 5 13c4 3 8 5 13 5c5 0 10-2 13-5c4-4 6-8 6-13z m-74 110l0-147c0-25-9-46-26-64c-18-18-40-27-65-27c-25 0-47 9-65 27c-17 18-26 39-26 64l0 147c0 25 9 46 26 64c18 18 40 27 65 27c25 0 47-9 65-27c17-18 26-39 26-64z"/>
<glyph unicode="&#44;" d="M494 198c0-15-5-28-13-38c-8-11-20-16-35-16c-8 0-15 2-22 5c-7 4-13 7-17 11c-5 4-10 8-16 11c-7 3-14 5-21 5c-21 0-31-12-31-35c0-8 1-19 4-33c3-15 5-26 5-33l0-2c-4 0-8 0-10 0c-6 0-15-2-28-3c-12-2-23-3-33-4c-9-1-19-1-28-1c-11 0-21 2-29 7c-8 5-12 13-12 24c0 7 2 14 5 20c3 7 7 12 11 16c4 5 7 10 11 17c3 7 5 15 5 22c0 15-5 27-16 36c-10 8-23 12-38 12c-16 0-30-4-41-13c-11-8-17-20-17-36c0-8 1-16 4-24c3-7 6-13 10-18c3-5 7-10 9-15c3-6 5-11 5-15c0-8-5-17-13-25c-7-7-19-10-34-10c-18 0-41 2-70 7c-2 0-4 0-8 1c-3 0-6 1-8 1l-3 1c0 0-1 0-1 0c-1 0-1 0-1 0l0 293c1 0 2-1 5-1c3-1 6-1 10-2c4 0 6-1 6-1c29-4 52-7 70-7c15 0 27 4 34 10c8 9 13 17 13 26c0 4-2 9-5 14c-2 6-6 11-9 15c-4 5-7 11-10 19c-3 7-4 15-4 24c0 15 6 27 17 36c11 9 25 13 41 13c15 0 28-4 38-13c11-8 16-20 16-35c0-8-2-15-5-22c-4-7-7-13-11-17c-4-4-8-10-11-16c-3-7-5-13-5-20c0-11 4-19 12-24c8-5 18-8 29-8c13 0 30 2 52 4c22 3 37 5 46 5l0 0c0-1 0-2-1-5c0-3-1-6-1-10c0-4-1-6-1-6c-5-29-7-52-7-70c0-15 3-27 10-34c9-8 17-13 26-13c4 0 9 2 14 5c5 2 10 6 15 9c5 4 11 7 19 10c7 3 15 4 23 4c16 0 28-6 37-17c8-11 13-25 13-41z"/>
<glyph unicode="&#45;" d="M239 119l90 103l-205 0l-90-103z m270 288c3-6 4-13 3-19c-1-7-4-13-9-18l-238-273c-7-8-16-12-26-12l-205 0c-7 0-13 2-18 6c-6 3-10 8-13 14c-3 6-4 13-3 19c1 7 4 13 9 18l238 273c7 8 16 12 26 12l205 0c7 0 13-2 18-6c6-3 10-8 13-14z"/>
<glyph unicode="&#46;" d="M293 121l0-48l-71 0l-45 72l-7 12c-2 2-3 4-3 6l-1 0l-3-6c-2-4-4-8-7-12l-44-72l-74 0l0 48l37 0l56 83l-53 78l-39 0l0 48l79 0l39-65c1-1 3-5 7-12c2-2 3-4 3-6l1 0c1 1 2 3 3 6l7 12l40 65l74 0l0-48l-36 0l-53-77l59-84z m182-62l0-59l-146 0l-2 8c0 8 0 13 0 13c0 12 2 23 7 33c5 10 11 19 19 25c7 6 15 13 24 19c8 6 16 11 24 15c7 5 13 10 18 16c5 5 8 12 8 18c0 7-3 13-9 18c-5 4-12 7-20 7c-10 0-19-4-28-11c-2-3-6-6-10-11l-30 26c5 7 11 13 18 19c15 12 33 18 54 18c21 0 38-5 51-17c13-11 19-26 19-45c0-12-3-24-10-34c-6-10-14-18-24-24c-9-7-19-13-28-18c-10-6-18-12-25-18c-7-7-11-14-12-21l66 0l0 23z"/>
<glyph unicode="&#47;" d="M293 121l0-48l-71 0l-45 72l-7 12c-2 2-3 4-3 6l-1 0l-3-6c-2-4-4-8-7-12l-44-72l-74 0l0 48l37 0l56 83l-53 78l-39 0l0 48l79 0l39-65c1-1 3-5 7-12c2-2 3-4 3-6l1 0c1 1 2 3 3 6l7 12l40 65l74 0l0-48l-36 0l-53-77l59-84z m182 194l0-59l-147 0l-1 8c-1 5-1 9-1 13c0 12 2 23 7 33c5 10 12 19 19 25c7 6 15 13 24 19c9 6 17 11 24 15c7 5 14 10 19 16c5 5 7 12 7 18c0 7-3 13-8 18c-6 4-13 7-21 7c-9 0-19-4-27-11c-3-3-6-6-11-11l-30 26c5 7 11 13 18 19c16 12 34 18 54 18c21 0 38-5 51-17c13-11 19-26 19-45c0-11-2-20-7-29c-4-9-10-17-17-22c-7-6-15-11-24-17c-8-5-16-10-23-14c-7-4-13-9-19-15c-5-6-8-12-8-18l66 0l0 23z"/>
<glyph unicode="&#58;" d="M311 155l0-64c0-5-2-9-6-12c-3-4-7-6-12-6l-74 0c-5 0-9 2-12 6c-4 3-6 7-6 12l0 64c0 5 2 10 6 13c3 4 7 6 12 6l74 0c5 0 9-2 12-6c4-3 6-8 6-13z m8 302l-8-219c0-5-2-10-5-13c-4-4-8-6-13-6l-74 0c-5 0-9 2-13 6c-3 3-5 8-5 13l-8 219c-1 5 1 9 5 13c3 4 7 5 12 5l92 0c5 0 9-1 12-5c4-4 6-8 5-13z"/>
<glyph unicode="&#59;" d="M347 128l0-37c0-5-1-9-5-12c-4-4-8-6-13-6l-146 0c-5 0-9 2-13 6c-4 3-5 7-5 12l0 37c0 5 1 9 5 13c4 3 8 5 13 5l18 0l0 110l-18 0c-5 0-9 2-13 5c-4 4-5 8-5 13l0 37c0 5 1 9 5 13c4 3 8 5 13 5l110 0c5 0 9-2 12-5c4-4 6-8 6-13l0-165l18 0c5 0 9-2 13-5c4-4 5-8 5-13z m-36 329l0-55c0-5-2-9-6-13c-3-3-7-5-12-5l-74 0c-5 0-9 2-12 5c-4 4-6 8-6 13l0 55c0 5 2 9 6 13c3 4 7 5 12 5l74 0c5 0 9-1 12-5c4-4 6-8 6-13z"/>
<glyph unicode="&#60;" d="M311 153l0-68c0-3-1-6-4-8c-2-3-5-4-8-4l-68 0c-3 0-6 1-8 4c-2 2-4 5-4 8l0 68c0 3 2 6 4 8c2 2 5 4 8 4l68 0c3 0 6-2 8-4c3-2 4-5 4-8z m90 172c0-11-1-20-4-29c-3-9-7-17-10-22c-4-6-9-11-16-17c-7-6-12-10-16-13c-5-2-10-6-18-10c-8-4-14-10-19-18c-6-8-8-15-8-19c0-4-1-7-4-10c-2-3-5-4-8-4l-68 0c-3 0-6 2-8 5c-2 4-3 7-3 11l0 13c0 16 7 30 19 44c12 14 26 25 41 31c11 6 19 11 24 16c5 6 7 13 7 22c0 8-4 15-13 21c-9 6-19 9-31 9c-12 0-23-2-31-8c-7-5-17-16-30-33c-3-3-6-4-9-4c-3 0-5 0-7 2l-47 36c-3 2-4 4-5 7c0 3 0 5 2 8c30 51 75 76 132 76c16 0 31-3 46-9c16-6 30-14 42-24c13-10 23-22 30-36c8-15 12-30 12-45z"/>
<glyph unicode="&#61;" d="M144 149l-73-73c-2-2-5-3-7-3c-2 0-4 1-7 3c-1 2-2 4-2 6c0 3 1 5 2 7l74 73c1 2 4 3 6 3c3 0 5-1 7-3c1-2 2-4 2-7c0-2-1-4-2-6z m48-12l0-91c0-3-1-5-3-7c-1-2-3-2-6-2c-3 0-5 0-7 2c-1 2-2 4-2 7l0 91c0 3 1 5 2 7c2 1 4 2 7 2c3 0 5-1 6-2c2-2 3-4 3-7z m-64 64c0-3-1-5-3-6c-1-2-3-3-6-3l-92 0c-2 0-4 1-6 3c-2 1-3 3-3 6c0 3 1 5 3 7c2 1 4 2 6 2l92 0c3 0 5-1 6-2c2-2 3-4 3-7z m361-36c0-23-8-43-24-58l-42-42c-16-16-35-24-58-24c-23 0-43 8-58 24l-96 96c-4 4-8 9-12 16l68 5l78-78c6-5 12-8 20-8c8 0 14 3 19 8l42 41c6 6 8 12 8 20c0 7-2 14-8 19l-78 79l5 68c7-4 12-8 16-12l96-96c16-17 24-36 24-58z m-176 206l-68-5l-78 79c-6 5-12 8-20 8c-7 0-14-3-19-8l-42-42c-6-5-8-12-8-19c0-8 2-14 8-19l78-79l-5-68c-7 4-12 8-16 12l-96 96c-16 16-24 36-24 58c0 23 8 42 24 58l42 42c16 16 35 23 58 23c23 0 43-8 58-24l96-96c4-4 8-9 12-16z m181-24c0-2-1-4-3-6c-2-2-4-3-6-3l-92 0c-3 0-5 1-6 3c-2 2-3 4-3 6c0 3 1 5 3 7c1 2 3 3 6 3l92 0c2 0 4-1 6-3c2-2 3-4 3-7z m-156 156l0-92c0-2-1-4-2-6c-2-2-4-3-7-3c-3 0-5 1-6 3c-2 2-3 4-3 6l0 92c0 3 1 5 3 6c1 2 3 3 6 3c3 0 5-1 7-3c1-1 2-3 2-6z m117-43l-74-73c-2-2-4-3-6-3c-2 0-5 1-7 3c-1 1-2 4-2 6c0 3 1 5 2 7l73 73c2 2 5 2 7 2c2 0 5 0 7-2c1-2 2-4 2-7c0-2-1-4-2-6z"/>
<glyph unicode="&#62;" d="M192 91c0 8-3 15-8 20c-5 5-12 8-19 8c-8 0-15-3-20-8c-5-5-8-12-8-20c0-7 3-14 8-19c5-5 12-8 20-8c7 0 14 3 19 8c5 5 8 12 8 19z m0 330c0 7-3 14-8 19c-5 5-12 8-19 8c-8 0-15-3-20-8c-5-5-8-12-8-19c0-8 3-15 8-20c5-5 12-8 20-8c7 0 14 3 19 8c5 5 8 12 8 20z m183-37c0 8-3 14-8 19c-5 6-12 8-20 8c-7 0-14-2-19-8c-5-5-8-11-8-19c0-8 3-14 8-19c5-6 12-8 19-8c8 0 15 2 20 8c5 5 8 11 8 19z m27 0c0-10-2-19-7-28c-5-8-12-15-20-19c-1-55-22-95-65-119c-13-7-32-15-58-23c-24-7-40-14-48-20c-8-6-12-16-12-29l0-7c8-5 15-12 20-20c5-8 7-18 7-28c0-15-5-28-16-38c-10-11-23-16-38-16c-16 0-29 5-39 16c-11 10-16 23-16 38c0 10 2 20 7 28c5 8 12 15 20 20l0 234c-8 5-15 12-20 20c-5 8-7 18-7 28c0 15 5 28 16 38c10 11 23 16 39 16c15 0 28-5 38-16c11-10 16-23 16-38c0-10-2-20-7-28c-5-8-12-15-20-20l0-142c10 5 25 11 44 16c10 4 19 6 25 9c6 2 13 5 20 9c7 3 13 7 17 11c4 4 8 9 12 15c3 5 6 12 8 19c1 8 2 17 2 27c-8 4-15 11-20 19c-5 9-7 18-7 28c0 15 5 28 16 39c10 11 23 16 38 16c16 0 29-5 39-16c11-11 16-24 16-39z"/>
<glyph unicode="&#63;" d="M177 146l170 0l0 170z m-12 13l170 170l-170 0z m329-22l0-55c0-2-1-5-3-6c-2-2-4-3-6-3l-64 0l0-64c0-3-1-5-3-6c-2-2-4-3-7-3l-54 0c-3 0-5 1-7 3c-2 1-3 3-3 6l0 64l-246 0c-3 0-5 1-7 3c-2 1-3 4-3 6l0 247l-64 0c-2 0-4 1-6 3c-2 1-3 4-3 6l0 55c0 3 1 5 3 7c2 1 4 2 6 2l64 0l0 64c0 3 1 5 3 7c2 2 4 2 7 2l54 0c3 0 5 0 7-2c2-2 3-4 3-7l0-64l243 0l70 71c2 2 4 2 7 2c2 0 4 0 6-2c2-2 3-4 3-7c0-2-1-4-3-6l-70-71l0-243l64 0c2 0 4-1 6-2c2-2 3-4 3-7z"/>
<glyph unicode="&#64;" d="M455 412l-183-365c-3-7-8-10-16-10c-1 0-2 0-4 0c-4 1-8 3-10 7c-3 3-4 7-4 11l0 164l-165 0c-4 0-8 2-11 4c-3 3-6 6-7 10c-1 5 0 9 2 12c1 4 4 7 8 9l366 183c2 1 5 2 8 2c5 0 9-2 13-6c3-2 4-6 5-9c1-4 0-8-2-12z"/>
<glyph unicode="&#91;" d="M357 239l74 71l-102 15l-19 3l-9 17l-45 92l0-275l17-9l91-48l-17 101l-4 19z m129 74l-103-101l24-143c1-6 1-11-2-14c-2-4-5-6-9-6c-4 0-7 2-12 4l-128 67l-128-67c-5-2-8-4-12-4c-4 0-7 2-9 6c-3 3-3 8-2 14l24 143l-104 101c-6 7-8 12-6 17c2 6 7 9 15 10l144 21l64 130c4 8 8 12 14 12c5 0 10-4 14-12l64-130l144-21c8-1 13-4 15-10c2-5 0-10-7-17z"/>
<glyph unicode="&#93;" d="M183 203l0-20c0-8-4-14-11-17c-3-1-5-1-7-1c-6 0-10 1-13 5l-147 146c-3 4-5 8-5 13c0 5 2 9 5 13l147 146c5 6 12 8 20 4c7-3 11-9 11-17l0-19l-114-114c-3-4-5-8-5-13c0-5 2-9 5-13z m329-11c0-11-2-24-5-38c-3-15-7-28-11-40c-4-11-9-23-14-35c-5-12-8-21-11-26l-6-12c-1-3-4-4-8-4c-1 0-2 0-2 0c-5 1-7 5-7 10c8 76-2 130-30 161c-12 14-29 24-49 32c-20 7-46 12-76 15l0-72c0-8-4-14-12-17c-2-1-4-1-7-1c-5 0-9 1-13 5l-146 146c-3 4-5 8-5 13c0 5 2 9 5 13l146 146c6 6 13 8 20 4c8-3 12-9 12-17l0-74c78-6 135-27 171-64c32-33 48-81 48-145z"/>
<glyph unicode="&#94;" d="M238 226l0 55c-35-3-71-14-110-33l0-53c39 18 76 29 110 31z m0 120l0 56c-33-2-70-14-110-36l0-54c41 21 78 32 110 34z m237-133l0 53c-44-22-81-29-109-20l0 64c-4 1-8 2-11 4c-1 1-5 2-10 5c-5 3-8 4-10 5c-1 0-4 2-9 4c-4 2-8 4-10 4c-1 1-4 2-9 4c-4 2-8 3-10 4c-3 0-6 1-10 2c-4 1-8 2-11 2c-4 1-8 1-12 1c-4 1-8 1-12 1c-5 0-9 0-14-1l0-63l5 0c20 0 38-3 55-9c17-5 36-13 57-23c3-2 7-3 11-4l0-54c8-3 16-5 26-5c23 0 50 9 83 26z m0 122l0 54c-32-17-61-26-87-26c-9 0-16 1-22 3l0-56c28-8 64 0 109 25z m-384 104c0-7-1-13-5-18c-3-6-7-10-13-14l0-361c0-3-1-5-2-7c-2-2-4-2-7-2l-18 0c-3 0-5 0-7 2c-2 2-2 4-2 7l0 361c-6 4-10 8-14 14c-3 5-5 11-5 18c0 10 4 19 11 26c7 7 16 10 26 10c10 0 19-3 26-10c7-7 10-16 10-26z m421-18l0-218c0-8-3-13-10-17c-2-1-4-2-5-2c-41-22-77-33-105-33c-17 0-32 3-45 10l-8 4c-13 6-22 10-29 13c-6 3-15 6-26 9c-10 2-21 4-32 4c-20 0-42-5-68-13c-25-8-47-18-65-29c-3-2-6-3-9-3c-3 0-6 1-9 3c-7 3-10 9-10 16l0 212c0 6 3 11 9 15c7 4 14 8 23 12c8 5 19 9 32 15c14 6 28 11 44 14c15 4 30 6 44 6c21 0 41-3 60-9c18-6 38-14 60-25c7-3 15-5 25-5c23 0 53 11 89 32c4 2 7 4 8 5c6 3 12 3 18-1c6-4 9-9 9-15z"/>
<glyph unicode="&#95;" d="M102 183l0-25c0-3-1-4-4-4l-25 0c-3 0-5 1-5 4l0 25c0 3 2 5 5 5l25 0c3 0 4-2 4-5z m35 69l0-26c0-3-2-4-5-4l-59 0c-3 0-5 1-5 4l0 26c0 3 2 4 5 4l59 0c3 0 5-1 5-4z m-35 68l0-26c0-2-1-4-4-4l-25 0c-3 0-5 2-5 4l0 26c0 3 2 4 5 4l25 0c3 0 4-1 4-4z m273-137l0-25c0-3-1-4-4-4l-230 0c-3 0-4 1-4 4l0 25c0 3 1 5 4 5l230 0c3 0 4-2 4-5z m-170 69l0-26c0-3-2-4-4-4l-26 0c-3 0-4 1-4 4l0 26c0 3 1 4 4 4l26 0c2 0 4-1 4-4z m-34 68l0-26c0-2-2-4-5-4l-25 0c-3 0-4 2-4 4l0 26c0 3 1 4 4 4l25 0c3 0 5-1 5-4z m102-68l0-26c0-3-1-4-4-4l-26 0c-3 0-4 1-4 4l0 26c0 3 1 4 4 4l26 0c3 0 4-1 4-4z m-34 68l0-26c0-2-1-4-4-4l-26 0c-3 0-4 2-4 4l0 26c0 3 1 4 4 4l26 0c3 0 4-1 4-4z m102-68l0-26c0-3-1-4-4-4l-26 0c-2 0-4 1-4 4l0 26c0 3 2 4 4 4l26 0c3 0 4-1 4-4z m103-69l0-25c0-3-2-4-5-4l-25 0c-3 0-4 1-4 4l0 25c0 3 1 5 4 5l25 0c3 0 5-2 5-5z m-137 137l0-26c0-2-1-4-4-4l-26 0c-3 0-4 2-4 4l0 26c0 3 1 4 4 4l26 0c3 0 4-1 4-4z m68 0l0-26c0-2-1-4-4-4l-25 0c-3 0-5 2-5 4l0 26c0 3 2 4 5 4l25 0c3 0 4-1 4-4z m69 0l0-94c0-3-2-4-5-4l-59 0c-3 0-5 1-5 4l0 26c0 3 2 4 5 4l30 0l0 64c0 3 1 4 4 4l25 0c3 0 5-1 5-4z m34-201l0 239l-444 0l0-239z m34 239l0-239c0-9-3-17-10-24c-7-6-15-10-24-10l-444 0c-9 0-17 4-24 10c-7 7-10 15-10 24l0 239c0 10 3 18 10 25c7 6 15 10 24 10l444 0c9 0 17-4 24-10c7-7 10-15 10-25z"/>
<glyph unicode="&#96;" d="M475 213l0 176c-32-17-61-26-87-26c-16 0-29 3-41 10c-19 9-37 16-53 21c-16 6-33 8-51 8c-33 0-71-12-115-36l0-171c47 21 88 32 124 32c10 0 20-1 29-2c10-1 19-4 28-7c10-4 17-7 22-9c6-3 13-6 24-12l8-4c8-4 18-6 29-6c23 0 50 9 83 26z m-384 226c0-7-1-13-5-18c-3-6-7-10-13-14l0-361c0-3-1-5-2-7c-2-2-4-2-7-2l-18 0c-3 0-5 0-7 2c-2 2-2 4-2 7l0 361c-6 4-10 8-14 14c-3 5-5 11-5 18c0 10 4 19 11 26c7 7 16 10 26 10c10 0 19-3 26-10c7-7 10-16 10-26z m421-18l0-218c0-8-3-13-10-17c-2-1-4-2-5-2c-41-22-77-33-105-33c-17 0-32 3-45 10l-8 4c-13 6-22 10-29 13c-6 3-15 6-26 9c-10 2-21 4-32 4c-20 0-42-5-68-13c-25-8-47-18-65-29c-3-2-6-3-9-3c-3 0-6 1-9 3c-7 3-10 9-10 16l0 212c0 6 3 11 9 15c7 4 14 8 23 12c8 5 19 9 32 15c14 6 28 11 44 14c15 4 30 6 44 6c21 0 41-3 60-9c18-6 38-14 60-25c7-3 15-5 25-5c23 0 53 11 89 32c4 2 7 4 8 5c6 3 12 3 18-1c6-4 9-9 9-15z"/>
<glyph unicode="&#123;" d="M222 205l0 34c0 2-1 4-3 6c-1 2-3 2-6 2l-51 0l0 52c0 2-1 4-2 6c-2 1-4 2-6 2l-35 0c-2 0-4-1-6-2c-1-2-2-4-2-6l0-52l-51 0c-3 0-5 0-6-2c-2-2-3-4-3-6l0-34c0-3 1-5 3-6c1-2 3-3 6-3l51 0l0-51c0-2 1-4 2-6c2-2 4-2 6-2l35 0c2 0 4 0 6 2c1 2 2 4 2 6l0 51l51 0c3 0 5 1 6 3c2 1 3 3 3 6z m153-17c0 9-3 17-10 24c-6 7-14 10-24 10c-9 0-17-3-24-10c-6-7-10-15-10-24c0-10 4-18 10-24c7-7 15-10 24-10c10 0 18 3 24 10c7 6 10 14 10 24z m69 68c0 9-4 17-10 24c-7 7-15 10-24 10c-10 0-18-3-25-10c-6-7-10-15-10-24c0-9 4-17 10-24c7-7 15-10 25-10c9 0 17 3 24 10c6 7 10 15 10 24z m68-34c0-38-13-70-40-97c-27-26-59-40-97-40c-34 0-64 12-90 34l-58 0c-26-22-56-34-90-34c-38 0-70 14-97 40c-27 27-40 59-40 97c0 38 13 70 40 96c27 27 59 40 97 40l238 0c38 0 70-13 97-40c27-26 40-58 40-96z"/>
<glyph unicode="&#124;" d="M366 201c0-5-2-9-6-13c-3-3-8-5-13-5l-182 0c-5 0-10 2-13 5c-4 4-6 8-6 13c0 5 2 9 6 13c3 4 8 5 13 5l182 0c5 0 10-1 13-5c4-4 6-8 6-13z m-147 128c0-10-3-19-10-26c-7-7-16-10-26-10c-10 0-19 3-26 10c-7 7-11 16-11 26c0 10 4 19 11 26c7 7 16 11 26 11c10 0 19-4 26-11c7-7 10-16 10-26z m147 0c0-10-4-19-11-26c-7-7-16-10-26-10c-10 0-19 3-26 10c-7 7-10 16-10 26c0 10 3 19 10 26c7 7 16 11 26 11c10 0 19-4 26-11c7-7 11-16 11-26z m73-73c0 25-5 48-15 71c-9 23-22 42-39 58c-16 17-35 30-58 39c-23 10-46 15-71 15c-25 0-48-5-71-15c-23-9-42-22-58-39c-17-16-30-35-39-58c-10-23-15-46-15-71c0-25 5-48 15-71c9-23 22-42 39-58c16-17 35-30 58-39c23-10 46-15 71-15c25 0 48 5 71 15c23 9 42 22 58 39c17 16 30 35 39 58c10 23 15 46 15 71z m36 0c0-40-9-77-29-110c-20-34-46-60-80-80c-33-20-70-29-110-29c-40 0-77 9-110 29c-34 20-60 46-80 80c-20 33-29 70-29 110c0 40 9 77 29 110c20 34 46 60 80 80c33 20 70 29 110 29c40 0 77-9 110-29c34-20 60-46 80-80c20-33 29-70 29-110z"/>
<glyph unicode="&#125;" d="M361 161c1-5 1-10-2-14c-2-4-5-7-10-9c-5-2-10-1-14 1c-5 2-8 6-9 11c-5 15-14 28-27 37c-13 9-27 14-43 14c-16 0-30-5-43-14c-13-9-22-22-27-37c-1-5-4-9-9-11c-4-2-9-3-14-1c-5 2-8 5-10 9c-3 4-3 9-2 14c7 23 21 41 40 56c19 14 41 21 65 21c24 0 46-7 65-21c19-15 33-33 40-56z m-142 168c0-10-3-19-10-26c-7-7-16-10-26-10c-10 0-19 3-26 10c-7 7-11 16-11 26c0 10 4 19 11 26c7 7 16 11 26 11c10 0 19-4 26-11c7-7 10-16 10-26z m147 0c0-10-4-19-11-26c-7-7-16-10-26-10c-10 0-19 3-26 10c-7 7-10 16-10 26c0 10 3 19 10 26c7 7 16 11 26 11c10 0 19-4 26-11c7-7 11-16 11-26z m73-73c0 25-5 48-15 71c-9 23-22 42-39 58c-16 17-35 30-58 39c-23 10-46 15-71 15c-25 0-48-5-71-15c-23-9-42-22-58-39c-17-16-30-35-39-58c-10-23-15-46-15-71c0-25 5-48 15-71c9-23 22-42 39-58c16-17 35-30 58-39c23-10 46-15 71-15c25 0 48 5 71 15c23 9 42 22 58 39c17 16 30 35 39 58c10 23 15 46 15 71z m36 0c0-40-9-77-29-110c-20-34-46-60-80-80c-33-20-70-29-110-29c-40 0-77 9-110 29c-34 20-60 46-80 80c-20 33-29 70-29 110c0 40 9 77 29 110c20 34 46 60 80 80c33 20 70 29 110 29c40 0 77-9 110-29c34-20 60-46 80-80c20-33 29-70 29-110z"/>
<glyph unicode="&#126;" d="M347 247l0-18c0-3 0-5-2-7c-2-2-4-3-7-3l-64 0l0-64c0-2-1-4-2-6c-2-2-4-3-7-3l-18 0c-3 0-5 1-7 3c-1 2-2 4-2 6l0 64l-64 0c-3 0-5 1-7 3c-2 2-2 4-2 7l0 18c0 3 0 5 2 6c2 2 4 3 7 3l64 0l0 64c0 3 1 5 2 7c2 1 4 2 7 2l18 0c3 0 5-1 7-2c1-2 2-4 2-7l0-64l64 0c3 0 5-1 7-3c2-1 2-3 2-6z m37-110l0 201c0 8-3 14-8 20c-5 5-12 8-19 8l-202 0c-7 0-14-3-19-8c-5-6-8-12-8-20l0-201c0-7 3-14 8-19c5-6 12-8 19-8l202 0c7 0 14 2 19 8c5 5 8 12 8 19z m37 201l0-201c0-17-7-32-19-45c-13-13-28-19-45-19l-202 0c-17 0-32 6-45 19c-12 13-19 28-19 45l0 201c0 18 7 33 19 46c13 12 28 18 45 18l202 0c17 0 32-6 45-18c12-13 19-28 19-46z"/>
<glyph unicode="&#92;" d="M357 402c17 0 32-6 45-18c12-13 19-28 19-46l0-201c0-17-7-32-19-45c-13-13-28-19-45-19l-202 0c-17 0-32 6-45 19c-12 13-19 28-19 45l0 201c0 18 7 33 19 46c13 12 28 18 45 18z m27-265l0 201c0 8-3 14-8 20c-5 5-12 8-19 8l-202 0c-7 0-14-3-19-8c-5-6-8-12-8-20l0-201c0-7 3-14 8-19c5-6 12-8 19-8l202 0c7 0 14 2 19 8c5 5 8 12 8 19z m-46 119c3 0 5-1 7-3c2-1 2-3 2-6l0-18c0-3 0-5-2-7c-2-2-4-3-7-3l-164 0c-3 0-5 1-7 3c-2 2-2 4-2 7l0 18c0 3 0 5 2 6c2 2 4 3 7 3z"/>
<glyph unicode="&#57344;" d="M475 247c0 6-5 9-14 9l-290 0c-7 0-15-2-23-6c-8-4-15-8-19-14l-79-97c-3-4-4-7-4-10c0-6 4-10 14-10l290 0c7 0 15 2 23 6c8 4 14 9 19 14l78 97c3 4 5 8 5 11z m-304 43l204 0l0 43c0 7-2 13-7 18c-5 5-11 7-18 7l-154 0c-7 0-13 3-18 8c-5 5-7 11-7 18l0 17c0 7-3 13-8 18c-5 5-11 8-18 8l-85 0c-7 0-13-3-18-8c-5-5-8-11-8-18l0-227l68 84c8 9 19 17 31 23c13 6 26 9 38 9z m338-43c0-11-4-22-12-32l-79-97c-8-10-18-17-31-23c-13-7-25-10-37-10l-290 0c-17 0-31 6-42 18c-12 12-18 26-18 42l0 256c0 16 6 30 18 42c11 12 25 18 42 18l85 0c16 0 30-6 42-18c12-12 18-26 18-42l0-8l145 0c16 0 30-6 42-18c12-12 18-26 18-42l0-43l51 0c9 0 18-2 26-6c8-5 14-11 18-19c3-6 4-12 4-18z"/>
<glyph unicode="&#57345;" d="M201 165c0-8-1-16-3-24c-3-8-7-15-13-22c-6-6-12-9-20-9c-8 0-15 3-21 9c-6 7-10 14-12 22c-3 8-4 16-4 24c0 7 1 15 4 23c2 8 6 15 12 22c6 6 13 9 21 9c8 0 14-3 20-9c6-7 10-14 13-22c2-8 3-16 3-23z m183 0c0-8-1-16-4-24c-2-8-6-15-12-22c-6-6-13-9-21-9c-8 0-14 3-20 9c-6 7-10 14-13 22c-2 8-3 16-3 24c0 7 1 15 3 23c3 8 7 15 13 22c6 6 12 9 20 9c8 0 15-3 21-9c6-7 10-14 12-22c3-8 4-16 4-23z m46 0c0 22-7 42-20 58c-13 16-31 24-53 24c-8 0-27-2-56-6c-14-2-29-3-45-3c-16 0-31 1-45 3c-29 4-47 6-56 6c-22 0-40-8-53-24c-13-16-20-36-20-58c0-17 3-32 9-44c7-13 14-23 24-30c9-7 21-13 34-17c14-4 28-7 40-8c13-2 27-2 43-2l48 0c16 0 30 0 43 2c12 1 26 4 40 8c13 4 25 10 34 17c10 7 17 17 24 30c6 12 9 27 9 44z m64 50c0-40-6-71-18-95c-7-14-17-27-30-38c-13-10-26-19-40-24c-14-6-30-11-49-14c-18-3-34-5-49-6c-14-1-30-1-47-1c-15 0-29 0-41 0c-12 1-26 2-42 4c-16 2-31 5-44 9c-13 3-26 8-39 14c-13 6-24 14-34 23c-11 10-19 21-25 33c-12 24-18 55-18 95c0 45 13 83 39 113c-5 16-8 32-8 49c0 22 5 42 15 62c21 0 39-4 54-11c16-8 34-20 54-36c28 7 58 10 89 10c28 0 54-3 80-9c20 16 37 27 53 35c16 7 34 11 54 11c10-20 15-40 15-62c0-17-3-33-8-48c26-31 39-69 39-114z"/>
<glyph unicode="&#57346;" d="M512 192c0-32-12-75-36-129c-1-1-2-3-3-7c-2-3-3-6-4-8c-1-3-3-5-4-7c-2-3-5-4-8-4c-3 0-5 1-7 2c-1 2-2 5-2 8c0 1 0 4 1 7c0 3 0 6 0 7c1 13 2 25 2 35c0 19-2 36-5 52c-3 15-8 28-14 39c-6 11-14 21-23 29c-9 8-19 15-30 20c-11 5-23 9-38 12c-15 3-29 5-44 6c-15 1-31 2-50 2l-64 0l0-73c0-5-2-9-6-13c-3-4-7-5-12-5c-5 0-10 1-13 5l-147 146c-3 4-5 8-5 13c0 5 2 9 5 13l147 146c3 4 8 6 13 6c5 0 9-2 12-6c4-3 6-8 6-13l0-73l64 0c136 0 219-38 250-115c10-25 15-57 15-95z"/>
<glyph unicode="&#57347;" d="M475 256c0-40-9-77-29-110c-20-34-46-60-80-80c-33-20-70-29-110-29c-40 0-77 9-110 29c-34 20-60 46-80 80c-20 33-29 70-29 110c0 40 9 77 29 110c20 34 46 60 80 80c33 20 70 29 110 29c40 0 77-9 110-29c34-20 60-46 80-80c20-33 29-70 29-110z"/>
<glyph unicode="&#57348;" d="M174 128c0-11-4-21-12-29c-9-8-18-12-29-12c-12 0-22 4-30 12c-8 8-12 18-12 29c0 11 4 21 12 29c8 8 18 12 30 12c11 0 20-4 29-12c8-8 12-18 12-29z m123-55c0-10-3-19-11-26c-7-7-15-10-25-10c-11 0-19 3-26 10c-7 7-11 16-11 26c0 10 4 19 11 26c7 7 15 11 26 11c10 0 18-4 25-11c8-7 11-16 11-26z m-174 183c0-13-4-23-13-32c-9-9-20-14-32-14c-13 0-24 5-33 14c-9 9-13 19-13 32c0 13 4 23 13 32c9 9 20 14 33 14c12 0 23-5 32-14c9-9 13-19 13-32z m298-128c0-9-4-16-10-23c-6-6-14-9-22-9c-9 0-17 3-23 9c-6 7-9 14-9 23c0 9 3 16 9 23c6 6 14 9 23 9c8 0 16-3 22-9c6-7 10-14 10-23z m-238 256c0-14-5-26-15-36c-10-9-22-14-35-14c-14 0-26 5-36 14c-10 10-15 22-15 36c0 14 5 26 15 36c10 9 22 14 36 14c13 0 25-5 35-14c10-10 15-22 15-36z m132 55c0-15-5-28-16-39c-10-11-23-16-38-16c-16 0-29 5-39 16c-11 11-16 24-16 39c0 15 5 28 16 39c10 10 23 16 39 16c15 0 28-6 38-16c11-11 16-24 16-39z m156-183c0-8-3-14-8-19c-5-6-12-8-20-8c-7 0-14 2-19 8c-5 5-8 11-8 19c0 8 3 14 8 19c5 6 12 8 19 8c8 0 15-2 20-8c5-5 8-11 8-19z m-60 128c0-6-2-12-6-16c-5-5-10-7-16-7c-7 0-12 2-17 7c-4 4-6 10-6 16c0 6 2 12 6 16c5 5 10 7 17 7c6 0 11-2 16-7c4-4 6-10 6-16z"/>
<glyph unicode="&#57349;" d="M238 421l0-202c0-19-4-38-12-56c-8-18-18-34-31-47c-13-13-29-24-47-31c-18-8-37-12-57-12l-18 0c-5 0-9 2-13 6c-3 3-5 7-5 12l0 37c0 5 2 9 5 13c4 3 8 5 13 5l18 0c21 0 38 7 52 22c14 14 22 31 22 51l0 10c0 7-3 14-8 19c-6 5-12 8-20 8l-64 0c-15 0-28 5-39 16c-10 11-16 24-16 39l0 110c0 15 6 28 16 38c11 11 24 16 39 16l110 0c15 0 28-5 39-16c10-10 16-23 16-38z m256 0l0-202c0-19-4-38-12-56c-8-18-18-34-31-47c-13-13-29-24-47-31c-18-8-37-12-57-12l-18 0c-5 0-9 2-13 6c-3 3-5 7-5 12l0 37c0 5 2 9 5 13c4 3 8 5 13 5l18 0c21 0 38 7 52 22c14 14 22 31 22 51l0 10c0 7-3 14-8 19c-6 5-12 8-20 8l-64 0c-15 0-28 5-39 16c-10 11-16 24-16 39l0 110c0 15 6 28 16 38c11 11 24 16 39 16l110 0c15 0 28-5 39-16c10-10 16-23 16-38z"/>
<glyph unicode="&#57350;" d="M256 411c-28 0-54-7-78-20c-24-14-43-33-57-57c-13-24-20-50-20-78c0-28 7-54 20-78c14-24 33-43 57-57c24-13 50-20 78-20c28 0 54 7 78 20c24 14 43 33 57 57c13 24 20 50 20 78c0 28-7 54-20 78c-14 24-33 43-57 57c-24 13-50 20-78 20z m219-155c0-40-9-77-29-110c-20-34-46-60-80-80c-33-20-70-29-110-29c-40 0-77 9-110 29c-34 20-60 46-80 80c-20 33-29 70-29 110c0 40 9 77 29 110c20 34 46 60 80 80c33 20 70 29 110 29c40 0 77-9 110-29c34-20 60-46 80-80c20-33 29-70 29-110z"/>
<glyph unicode="&#57351;" d="M238 238l0-110c0-15-6-28-16-39c-11-11-24-16-39-16l-110 0c-15 0-28 5-39 16c-10 11-16 24-16 39l0 201c0 20 4 39 12 57c8 18 18 33 31 47c13 13 29 23 47 31c18 8 37 11 57 11l18 0c5 0 9-1 13-5c3-4 5-8 5-13l0-36c0-5-2-10-5-13c-4-4-8-6-13-6l-18 0c-21 0-38-7-52-21c-14-14-22-32-22-52l0-9c0-8 3-14 8-19c6-6 12-8 20-8l64 0c15 0 28-6 39-16c10-11 16-24 16-39z m256 0l0-110c0-15-6-28-16-39c-11-11-24-16-39-16l-110 0c-15 0-28 5-39 16c-10 11-16 24-16 39l0 201c0 20 4 39 12 57c8 18 18 33 31 47c13 13 29 23 47 31c18 8 37 11 57 11l18 0c5 0 9-1 13-5c3-4 5-8 5-13l0-36c0-5-2-10-5-13c-4-4-8-6-13-6l-18 0c-21 0-38-7-52-21c-14-14-22-32-22-52l0-9c0-8 3-14 8-19c6-6 12-8 20-8l64 0c15 0 28-6 39-16c10-11 16-24 16-39z"/>
<glyph unicode="&#57352;" d="M274 110c0 5-2 9-5 13c-4 3-8 5-13 5c-5 0-9-2-13-5c-3-4-5-8-5-13c0-5 2-10 5-13c4-4 8-6 13-6c5 0 9 2 13 6c3 3 5 8 5 13z m110 45l0 275c0 2-1 4-3 6c-2 2-4 3-6 3l-238 0c-2 0-4-1-6-3c-2-2-3-4-3-6l0-275c0-2 1-4 3-6c2-2 4-3 6-3l238 0c2 0 4 1 6 3c2 2 3 4 3 6z m37 275l0-311c0-13-5-23-14-32c-9-9-20-14-32-14l-238 0c-12 0-23 5-32 14c-9 9-14 19-14 32l0 311c0 12 5 23 14 32c9 9 20 13 32 13l238 0c12 0 23-4 32-13c9-9 14-20 14-32z"/>
<glyph unicode="&#57353;" d="M279 110c0 6-2 11-7 16c-4 4-10 7-16 7c-6 0-12-3-16-7c-5-5-7-10-7-16c0-7 2-12 7-16c4-5 10-7 16-7c6 0 12 2 16 7c5 4 7 9 7 16z m59 45l0 202c0 2-1 4-2 6c-2 2-4 3-7 3l-146 0c-3 0-5-1-7-3c-1-2-2-4-2-6l0-202c0-2 1-4 2-6c2-2 4-3 7-3l146 0c3 0 5 1 7 3c1 2 2 4 2 6z m-55 243c0 3-1 4-4 4l-46 0c-3 0-4-1-4-4c0-3 1-5 4-5l46 0c3 0 4 2 4 5z m83 4l0-292c0-10-4-19-11-26c-7-7-16-11-26-11l-146 0c-10 0-19 4-26 11c-7 7-11 16-11 26l0 292c0 10 4 19 11 26c7 7 16 11 26 11l146 0c10 0 19-4 26-11c7-7 11-16 11-26z"/>
<glyph unicode="&#57354;" d="M478 230l0 222c0 3-1 5-3 6c-1 2-3 3-6 3l-426 0c-3 0-5-1-6-3c-2-1-3-3-3-6l0-222c0-2 1-4 3-6c1-1 3-2 6-2l426 0c3 0 5 1 6 2c2 2 3 4 3 6z m34 222l0-290c0-12-4-22-13-30c-8-8-18-13-30-13l-145 0c0-6 2-13 5-20c2-7 5-14 8-19c3-6 4-9 4-12c0-4-1-8-5-12c-3-3-7-5-12-5l-136 0c-5 0-9 2-12 5c-4 4-5 8-5 12c0 3 1 7 4 12c3 5 6 12 8 19c3 7 5 14 5 20l-145 0c-12 0-22 5-30 13c-9 8-13 18-13 30l0 290c0 12 4 22 13 30c8 9 18 13 30 13l426 0c12 0 22-4 30-13c9-8 13-18 13-30z"/>
<glyph unicode="&#57355;" d="M111 154c-12 0-22 4-30 12c-9 8-13 19-13 30l0 188c0 12 4 22 13 30c8 8 18 13 30 13l290 0c12 0 22-5 30-13c9-8 13-18 13-30l0-188c0-11-4-22-13-30c-8-8-18-12-30-12z m-9 230l0-188c0-2 1-4 3-6c2-1 4-2 6-2l290 0c2 0 4 1 6 2c2 2 3 4 3 6l0 188c0 2-1 4-3 6c-2 2-4 3-6 3l-290 0c-2 0-4-1-6-3c-2-2-3-4-3-6z m367-247l43 0l0-26c0-7-4-13-13-18c-8-5-18-8-30-8l-426 0c-12 0-22 3-30 8c-9 5-13 11-13 18l0 26z m-192-26c3 0 5 1 5 4c0 3-2 4-5 4l-42 0c-3 0-5-1-5-4c0-3 2-4 5-4z"/>
<glyph unicode="&#57356;" d="M399 174c0-3-1-5-3-7l-15-14c-1-2-4-3-6-3c-3 0-5 1-7 3l-112 112l-112-112c-2-2-4-3-7-3c-2 0-5 1-6 3l-15 14c-2 2-3 4-3 7c0 2 1 4 3 6l133 133c2 2 5 3 7 3c2 0 5-1 7-3l133-133c2-2 3-4 3-6z"/>
<glyph unicode="&#57357;" d="M335 238c0-3-1-5-3-7l-133-133c-2-2-5-3-7-3c-2 0-5 1-7 3l-14 14c-2 2-3 4-3 7c0 2 1 5 3 6l112 113l-112 112c-2 2-3 4-3 7c0 2 1 4 3 6l14 14c2 2 5 3 7 3c2 0 5-1 7-3l133-133c2-2 3-4 3-6z"/>
<glyph unicode="&#57358;" d="M344 357c0-3-1-5-3-7l-112-112l112-113c2-1 3-4 3-6c0-3-1-5-3-7l-14-14c-2-2-5-3-7-3c-2 0-5 1-7 3l-133 133c-2 2-3 4-3 7c0 2 1 4 3 6l133 133c2 2 5 3 7 3c2 0 5-1 7-3l14-14c2-2 3-4 3-6z"/>
<glyph unicode="&#57359;" d="M399 265c0-2-1-5-3-6l-133-134c-2-1-5-2-7-2c-2 0-5 1-7 2l-133 134c-2 1-3 4-3 6c0 3 1 5 3 7l15 14c1 2 4 3 6 3c3 0 5-1 7-3l112-112l112 112c2 2 4 3 7 3c2 0 5-1 6-3l15-14c2-2 3-4 3-7z m0 110c0-3-1-5-3-7l-133-133c-2-2-5-3-7-3c-2 0-5 1-7 3l-133 133c-2 2-3 4-3 7c0 2 1 5 3 6l15 15c1 2 4 3 6 3c3 0 5-1 7-3l112-113l112 113c2 2 4 3 7 3c2 0 5-1 6-3l15-15c2-1 3-4 3-6z"/>
<glyph unicode="&#57360;" d="M399 137c0-2-1-5-3-6l-15-15c-1-2-4-3-6-3c-3 0-5 1-7 3l-112 113l-112-113c-2-2-4-3-7-3c-2 0-5 1-6 3l-15 15c-2 1-3 4-3 6c0 3 1 5 3 7l133 133c2 2 5 3 7 3c2 0 5-1 7-3l133-133c2-2 3-4 3-7z m0 110c0-3-1-5-3-7l-15-14c-1-2-4-3-6-3c-3 0-5 1-7 3l-112 112l-112-112c-2-2-4-3-7-3c-2 0-5 1-6 3l-15 14c-2 2-3 4-3 7c0 2 1 5 3 6l133 134c2 1 5 2 7 2c2 0 5-1 7-2l133-134c2-1 3-4 3-6z"/>
<glyph unicode="&#57361;" d="M280 238c0-3-1-5-3-7l-133-133c-2-2-4-3-7-3c-2 0-5 1-6 3l-15 14c-2 2-3 4-3 7c0 2 1 5 3 6l113 113l-113 112c-2 2-3 4-3 7c0 2 1 4 3 6l15 14c1 2 4 3 6 3c3 0 5-1 7-3l133-133c2-2 3-4 3-6z m109 0c0-3-1-5-2-7l-134-133c-1-2-4-3-6-3c-3 0-5 1-7 3l-14 14c-2 2-3 4-3 7c0 2 1 5 3 6l112 113l-112 112c-2 2-3 4-3 7c0 2 1 4 3 6l14 14c2 2 4 3 7 3c2 0 5-1 6-3l134-133c1-2 2-4 2-6z"/>
<glyph unicode="&#57362;" d="M289 119c0-3-1-5-3-7l-14-14c-2-2-4-3-7-3c-2 0-5 1-6 3l-134 133c-1 2-2 4-2 7c0 2 1 4 2 6l134 133c1 2 4 3 6 3c3 0 5-1 7-3l14-14c2-2 3-4 3-6c0-3-1-5-3-7l-112-112l112-113c2-1 3-4 3-6z m110 0c0-3-1-5-3-7l-15-14c-1-2-4-3-6-3c-3 0-5 1-7 3l-133 133c-2 2-3 4-3 7c0 2 1 4 3 6l133 133c2 2 4 3 7 3c2 0 5-1 6-3l15-14c2-2 3-4 3-6c0-3-1-5-3-7l-113-112l113-113c2-1 3-4 3-6z"/>
<glyph unicode="&#57363;" d="M402 238l0 36c0 5-2 10-5 13c-4 4-8 6-13 6l-91 0l0 91c0 5-2 9-6 13c-3 3-8 5-13 5l-36 0c-5 0-10-2-13-5c-4-4-6-8-6-13l0-91l-91 0c-5 0-9-2-13-6c-3-3-5-8-5-13l0-36c0-5 2-10 5-13c4-4 8-6 13-6l91 0l0-91c0-5 2-9 6-13c3-3 8-5 13-5l36 0c5 0 10 2 13 5c4 4 6 8 6 13l0 91l91 0c5 0 9 2 13 6c3 3 5 8 5 13z m73 155l0-274c0-23-8-42-24-58c-16-16-35-24-58-24l-274 0c-23 0-42 8-58 24c-16 16-24 35-24 58l0 274c0 23 8 42 24 58c16 16 35 24 58 24l274 0c23 0 42-8 58-24c16-16 24-35 24-58z"/>
<glyph unicode="&#57364;" d="M402 128l0 256c0 5-2 9-5 13c-4 3-8 5-13 5l-37 0c-5 0-9-2-12-5c-4-4-6-8-6-13l0-91l-146 0l0 91c0 5-2 9-6 13c-3 3-7 5-12 5l-37 0c-5 0-9-2-13-5c-3-4-5-8-5-13l0-256c0-5 2-9 5-13c4-3 8-5 13-5l37 0c5 0 9 2 12 5c4 4 6 8 6 13l0 91l146 0l0-91c0-5 2-9 6-13c3-3 7-5 12-5l37 0c5 0 9 2 13 5c3 4 5 8 5 13z m73 265l0-274c0-23-8-42-24-58c-16-16-35-24-58-24l-274 0c-23 0-42 8-58 24c-16 16-24 35-24 58l0 274c0 23 8 42 24 58c16 16 35 24 58 24l274 0c23 0 42-8 58-24c16-16 24-35 24-58z"/>
<glyph unicode="&#57365;" d="M512 239c0-6-26-14-77-26l-94-8l-59-17l-17 0l-79-94l19 0c4 0 8-1 12-1c3-1 5-2 5-3c0-2-2-3-5-3c-4-1-8-2-12-2l-86 0l0 9l18 0l0 111l-43 0l-51-60l-26 0l-8 9l0 51l8 0l0 8l34 0l0 2l-51 7l0 34l51 6l0 3l-34 0l0 8l-8 0l0 51l8 9l26 0l51-60l43 0l0 111l-18 0l0 9l86 0c4 0 8-1 12-2c3 0 5-1 5-3c0-1-2-2-5-3c-4-1-8-1-12-1l-19 0l79-94l17 0l59-17l94-8c47-11 72-19 77-25z"/>
<glyph unicode="&#57366;" d="M366 192l0 55c0 3-1 5-3 6c-2 2-4 3-6 3l-64 0l0 64c0 3-1 5-3 7c-2 1-4 2-7 2l-54 0c-3 0-5-1-7-2c-2-2-3-4-3-7l0-64l-64 0c-2 0-4-1-6-3c-2-1-3-3-3-6l0-55c0-3 1-5 3-7c2-1 4-2 6-2l64 0l0-64c0-3 1-5 3-7c2-1 4-2 7-2l54 0c3 0 5 1 7 2c2 2 3 4 3 7l0 64l64 0c2 0 4 1 6 2c2 2 3 4 3 7z m-183 210l146 0l0 37l-146 0z m-110 0l0-365l-9 0c-18 0-33 6-45 18c-13 13-19 28-19 46l0 237c0 18 6 33 19 45c12 13 27 19 45 19z m338 0l0-365l-310 0l0 365l45 0l0 46c0 8 3 14 8 19c6 6 12 8 20 8l164 0c8 0 14-2 20-8c5-5 8-11 8-19l0-46z m101-64l0-237c0-18-6-33-19-46c-12-12-27-18-45-18l-9 0l0 365l9 0c18 0 33-6 45-19c13-12 19-27 19-45z"/>
<glyph unicode="&#57367;" d="M171 119c0 10-4 18-10 25c-7 6-15 10-24 10c-10 0-18-4-25-10c-6-7-10-15-10-25c0-9 4-17 10-24c7-6 15-10 25-10c9 0 17 4 24 10c6 7 10 15 10 24z m-103 137l103 0l0 68l-42 0c-3 0-5-1-6-2l-52-52c-2-2-2-4-3-6z m342-137c0 10-4 18-10 25c-7 6-15 10-25 10c-9 0-17-4-24-10c-6-7-10-15-10-25c0-9 4-17 10-24c7-6 15-10 24-10c10 0 18 4 25 10c6 7 10 15 10 24z m34 180l0 51c0 2-1 4-3 6c-1 2-3 2-6 2l-60 0l0 60c0 3 0 5-2 6c-2 2-4 3-6 3l-51 0c-3 0-5-1-6-3c-2-1-3-3-3-6l0-60l-60 0c-2 0-4 0-6-2c-1-2-2-4-2-6l0-51c0-3 1-5 2-6c2-2 4-3 6-3l60 0l0-60c0-2 1-4 3-6c1-1 3-2 6-2l51 0c2 0 4 1 6 2c2 2 2 4 2 6l0 60l60 0c3 0 5 1 6 3c2 1 3 3 3 6z m68 145l0-307c0-5-2-9-5-12c-3-4-7-6-12-6l-51 0c0-18-7-34-20-48c-14-13-30-20-49-20c-18 0-34 7-48 20c-13 14-20 30-20 48l-102 0c0-18-7-34-20-48c-14-13-30-20-48-20c-19 0-35 7-49 20c-13 14-20 30-20 48l-34 0c-4 0-8 2-12 6c-3 3-5 7-5 12c0 4 2 8 5 12c4 3 8 5 12 5l0 111c0 4 1 9 4 15c2 6 5 10 8 14l53 52c3 4 8 7 14 9c5 2 10 3 15 3l43 0l0 86c0 4 1 8 5 12c3 3 7 5 12 5l307 0c5 0 9-2 12-5c3-4 5-8 5-12z"/>
<glyph unicode="&#57368;" d="M165 137l0-18c0-3-1-5-3-7c-2-1-4-2-7-2l-18 0c-2 0-4 1-6 2c-2 2-3 4-3 7l0 18c0 3 1 5 3 7c2 1 4 2 6 2l18 0c3 0 5-1 7-2c2-2 3-4 3-7z m0 73l0-18c0-2-1-5-3-6c-2-2-4-3-7-3l-18 0c-2 0-4 1-6 3c-2 1-3 4-3 6l0 18c0 3 1 5 3 7c2 2 4 2 6 2l18 0c3 0 5 0 7-2c2-2 3-4 3-7z m73 0l0-18c0-2-1-5-3-6c-2-2-4-3-6-3l-19 0c-2 0-4 1-6 3c-2 1-3 4-3 6l0 18c0 3 1 5 3 7c2 2 4 2 6 2l19 0c2 0 4 0 6-2c2-2 3-4 3-7z m-73 73l0-18c0-2-1-4-3-6c-2-2-4-3-7-3l-18 0c-2 0-4 1-6 3c-2 2-3 4-3 6l0 18c0 3 1 5 3 7c2 2 4 3 6 3l18 0c3 0 5-1 7-3c2-2 3-4 3-7z m219-146l0-18c0-3-1-5-3-7c-2-1-4-2-6-2l-18 0c-3 0-5 1-7 2c-2 2-3 4-3 7l0 18c0 3 1 5 3 7c2 1 4 2 7 2l18 0c2 0 4-1 6-2c2-2 3-4 3-7z m-73 73l0-18c0-2-1-5-3-6c-2-2-4-3-6-3l-19 0c-2 0-4 1-6 3c-2 1-3 4-3 6l0 18c0 3 1 5 3 7c2 2 4 2 6 2l19 0c2 0 4 0 6-2c2-2 3-4 3-7z m-73 73l0-18c0-2-1-4-3-6c-2-2-4-3-6-3l-19 0c-2 0-4 1-6 3c-2 2-3 4-3 6l0 18c0 3 1 5 3 7c2 2 4 3 6 3l19 0c2 0 4-1 6-3c2-2 3-4 3-7z m-73 74l0-19c0-2-1-4-3-6c-2-2-4-3-7-3l-18 0c-2 0-4 1-6 3c-2 2-3 4-3 6l0 19c0 2 1 4 3 6c2 2 4 3 6 3l18 0c3 0 5-1 7-3c2-2 3-4 3-6z m219-147l0-18c0-2-1-5-3-6c-2-2-4-3-6-3l-18 0c-3 0-5 1-7 3c-2 1-3 4-3 6l0 18c0 3 1 5 3 7c2 2 4 2 7 2l18 0c2 0 4 0 6-2c2-2 3-4 3-7z m-73 73l0-18c0-2-1-4-3-6c-2-2-4-3-6-3l-19 0c-2 0-4 1-6 3c-2 2-3 4-3 6l0 18c0 3 1 5 3 7c2 2 4 3 6 3l19 0c2 0 4-1 6-3c2-2 3-4 3-7z m-73 74l0-19c0-2-1-4-3-6c-2-2-4-3-6-3l-19 0c-2 0-4 1-6 3c-2 2-3 4-3 6l0 19c0 2 1 4 3 6c2 2 4 3 6 3l19 0c2 0 4-1 6-3c2-2 3-4 3-6z m-73 73l0-19c0-2-1-4-3-6c-2-2-4-3-7-3l-18 0c-2 0-4 1-6 3c-2 2-3 4-3 6l0 19c0 2 1 4 3 6c2 2 4 3 6 3l18 0c3 0 5-1 7-3c2-2 3-4 3-6z m219-147l0-18c0-2-1-4-3-6c-2-2-4-3-6-3l-18 0c-3 0-5 1-7 3c-2 2-3 4-3 6l0 18c0 3 1 5 3 7c2 2 4 3 7 3l18 0c2 0 4-1 6-3c2-2 3-4 3-7z m-73 74l0-19c0-2-1-4-3-6c-2-2-4-3-6-3l-19 0c-2 0-4 1-6 3c-2 2-3 4-3 6l0 19c0 2 1 4 3 6c2 2 4 3 6 3l19 0c2 0 4-1 6-3c2-2 3-4 3-6z m-73 73l0-19c0-2-1-4-3-6c-2-2-4-3-6-3l-19 0c-2 0-4 1-6 3c-2 2-3 4-3 6l0 19c0 2 1 4 3 6c2 2 4 3 6 3l19 0c2 0 4-1 6-3c2-2 3-4 3-6z m146-73l0-19c0-2-1-4-3-6c-2-2-4-3-6-3l-18 0c-3 0-5 1-7 3c-2 2-3 4-3 6l0 19c0 2 1 4 3 6c2 2 4 3 7 3l18 0c2 0 4-1 6-3c2-2 3-4 3-6z m-73 73l0-19c0-2-1-4-3-6c-2-2-4-3-6-3l-19 0c-2 0-4 1-6 3c-2 2-3 4-3 6l0 19c0 2 1 4 3 6c2 2 4 3 6 3l19 0c2 0 4-1 6-3c2-2 3-4 3-6z m73 0l0-19c0-2-1-4-3-6c-2-2-4-3-6-3l-18 0c-3 0-5 1-7 3c-2 2-3 4-3 6l0 19c0 2 1 4 3 6c2 2 4 3 7 3l18 0c2 0 4-1 6-3c2-2 3-4 3-6z m-73-393l110 0l0 438l-330 0l0-438l110 0l0 64c0 2 1 4 3 6c2 2 4 3 6 3l92 0c2 0 4-1 6-3c2-2 3-4 3-6z m146 457l0-476c0-5-2-9-5-13c-4-3-8-5-13-5l-366 0c-5 0-9 2-13 5c-3 4-5 8-5 13l0 476c0 5 2 9 5 13c4 3 8 5 13 5l366 0c5 0 9-2 13-5c3-4 5-8 5-13z"/>
<glyph unicode="&#57369;" d="M366 174l0-19c0-2-1-4-3-6c-2-2-4-3-6-3l-202 0c-2 0-4 1-6 3c-2 2-3 4-3 6l0 19c0 2 1 5 3 6c2 2 4 3 6 3l202 0c2 0 4-1 6-3c2-1 3-4 3-6z m0 73l0-18c0-3-1-5-3-7c-2-2-4-3-6-3l-202 0c-2 0-4 1-6 3c-2 2-3 4-3 7l0 18c0 3 1 5 3 6c2 2 4 3 6 3l202 0c2 0 4-1 6-3c2-1 3-3 3-6z m-256-174l292 0l0 220l-119 0c-7 0-14 2-19 8c-5 5-8 11-8 19l0 119l-146 0z m183 256l107 0c-2 6-4 10-6 12l-90 89c-2 3-6 5-11 7z m146-9l0-256c0-8-3-14-8-19c-5-6-12-8-20-8l-310 0c-8 0-15 2-20 8c-5 5-8 11-8 19l0 384c0 8 3 14 8 19c5 6 12 8 20 8l182 0c8 0 16-1 26-5c9-4 16-9 21-14l89-89c6-5 10-13 14-22c4-9 6-17 6-25z"/>
<glyph unicode="&#57370;" d="M238 494l0-183c0-12-4-22-10-32c-7-9-16-16-27-20l0-222c0-10-3-19-11-26c-7-7-16-11-25-11l-37 0c-10 0-18 4-26 11c-7 7-11 16-11 26l0 222c-10 4-19 11-26 20c-7 10-10 20-10 32l0 183c0 5 2 9 5 13c4 3 8 5 13 5c5 0 9-2 13-5c4-4 5-8 5-13l0-119c0-5 2-9 6-13c3-4 8-5 13-5c5 0 9 1 13 5c3 4 5 8 5 13l0 119c0 5 2 9 5 13c4 3 8 5 13 5c5 0 10-2 13-5c4-4 6-8 6-13l0-119c0-5 1-9 5-13c4-4 8-5 13-5c5 0 9 1 13 5c3 4 5 8 5 13l0 119c0 5 2 9 6 13c3 3 7 5 12 5c5 0 10-2 13-5c4-4 6-8 6-13z m219 0l0-457c0-10-3-19-11-26c-7-7-16-11-25-11l-37 0c-10 0-18 4-26 11c-7 7-11 16-11 26l0 146l-64 0c-2 0-4 1-6 3c-2 1-3 4-3 6l0 229c0 25 9 46 27 64c18 18 40 27 65 27l73 0c5 0 9-2 13-5c3-4 5-8 5-13z"/>
<glyph unicode="&#57371;" d="M444 324c0 14-5 27-15 37c-10 9-22 14-36 14l-18 0l0-102l18 0c14 0 26 5 36 15c10 10 15 22 15 36z m-444-205l478 0c0-18-7-34-20-48c-13-13-30-20-48-20l-342 0c-19 0-35 7-48 20c-13 14-20 30-20 48z m495 205c0-28-10-52-30-72c-20-20-44-30-72-30l-18 0l0-9c0-16-5-30-17-42c-12-12-26-17-42-17l-188 0c-16 0-30 5-42 17c-12 12-18 26-18 42l0 197c0 4 2 8 5 12c4 3 8 5 12 5l308 0c28 0 52-10 72-30c20-20 30-44 30-73z"/>
<glyph unicode="&#57372;" d="M183 402l146 0l0 37l-146 0z m-101 0l0-365l-18 0c-18 0-33 6-45 18c-13 13-19 28-19 46l0 237c0 18 6 33 19 45c12 13 27 19 45 19z m320 0l0-365l-292 0l0 365l36 0l0 46c0 8 3 14 8 19c6 6 12 8 20 8l164 0c8 0 14-2 20-8c5-5 8-11 8-19l0-46z m110-64l0-237c0-18-6-33-19-46c-12-12-27-18-45-18l-18 0l0 365l18 0c18 0 33-6 45-19c13-12 19-27 19-45z"/>
<glyph unicode="&#57373;" d="M421 311c0 5-2 9-6 13c-3 3-8 5-13 5c-5 0-9-2-13-5c-3-4-5-8-5-13c0-5 2-9 5-13c4-4 8-5 13-5c5 0 10 1 13 5c4 4 6 8 6 13z m36 0c0-12-3-23-10-32c-7-9-16-16-26-20l0-113c0-30-13-56-38-77c-25-22-55-32-90-32c-36 0-66 10-91 32c-25 21-37 47-37 77l0 38c-32 4-58 16-79 37c-21 20-31 44-31 72l0 146c0 5 2 9 5 13c4 3 8 5 13 5c1 0 3 0 5 0c3 5 7 10 13 13c6 4 12 5 19 5c10 0 18-3 26-10c7-7 10-16 10-26c0-10-3-19-10-26c-8-7-16-11-26-11c-7 0-13 2-19 5l0-114c0-21 9-38 27-52c18-14 40-22 65-22c25 0 47 8 64 22c18 14 27 31 27 52l0 114c-6-3-12-5-18-5c-10 0-19 4-26 11c-7 7-11 16-11 26c0 10 4 19 11 26c7 7 16 10 26 10c7 0 13-1 19-5c5-3 10-8 13-13c2 0 3 0 5 0c5 0 9-2 12-5c4-4 6-8 6-13l0-146c0-28-11-52-32-72c-21-21-47-33-78-37l0-38c0-20 9-37 27-51c18-15 39-22 65-22c25 0 46 7 64 22c18 14 27 31 27 51l0 113c-11 4-20 11-26 20c-7 9-11 20-11 32c0 15 6 28 16 39c11 10 24 16 39 16c16 0 28-6 39-16c11-11 16-24 16-39z"/>
<glyph unicode="&#57374;" d="M165 128c0-5-2-9-6-13c-3-3-8-5-13-5c-5 0-9 2-13 5c-3 4-5 8-5 13c0 5 2 9 5 13c4 3 8 5 13 5c5 0 10-2 13-5c4-4 6-8 6-13z m292-17c0-23-7-42-21-55c-14-13-32-19-55-19l-250 0c-23 0-41 6-55 19c-14 13-21 32-21 55c0 13 0 25 1 37c1 12 4 25 7 39c4 15 8 27 14 38c5 11 13 21 23 30c10 8 21 14 34 17c-4-10-6-21-6-34l0-58c-11-4-20-11-27-20c-6-10-10-20-10-32c0-15 6-28 16-39c11-11 24-16 39-16c16 0 28 5 39 16c11 11 16 24 16 39c0 12-3 22-10 32c-7 9-16 16-26 20l0 58c0 12 2 20 7 26c25-20 53-29 84-29c31 0 59 9 84 29c5-6 7-14 7-26l0-19c-20 0-37-7-51-21c-15-14-22-32-22-52l0-25c-6-6-9-12-9-20c0-8 3-15 8-20c5-5 12-8 20-8c7 0 14 3 19 8c5 5 8 12 8 20c0 8-3 14-9 20l0 25c0 10 3 19 11 26c7 7 16 11 25 11c10 0 19-4 26-11c7-7 11-16 11-26l0-25c-6-6-9-12-9-20c0-8 3-15 8-20c5-5 12-8 19-8c8 0 14 3 20 8c5 5 8 12 8 20c0 8-3 14-9 20l0 25c0 13-4 25-10 37c-7 11-16 20-27 26c0 2 0 6 0 13c0 6 0 10 0 13c0 3 0 7-1 12c0 5-1 10-2 14c-1 4-2 7-3 11c13-3 24-9 34-17c10-9 18-19 23-30c6-11 10-23 14-38c3-14 6-27 7-39c1-12 1-24 1-37z m-91 255c0-31-11-56-32-78c-22-21-48-32-78-32c-30 0-56 11-78 32c-21 22-32 47-32 78c0 30 11 56 32 77c22 22 48 32 78 32c30 0 56-10 78-32c21-21 32-47 32-77z"/>
<glyph unicode="&#57375;" d="M341 265c0 2 0 4-2 6l-94 94c-2 1-4 2-6 2c-3 0-5-1-6-2l-94-94c-2-2-2-4-2-6c0-3 0-5 2-7c2-1 4-2 6-2l60 0l0-94c0-2 1-4 2-6c2-2 4-2 6-2l52 0c2 0 4 0 6 2c1 2 2 4 2 6l0 94l60 0c2 0 4 1 6 3c1 1 2 3 2 6z m171-77c0-29-10-53-30-73c-20-20-44-30-72-30l-291 0c-32 0-61 12-84 35c-23 24-35 52-35 85c0 23 6 44 19 64c12 19 29 34 50 44c-1 5-1 9-1 11c0 38 14 70 40 97c27 26 59 40 97 40c28 0 53-8 76-23c23-16 40-36 50-62c13 11 28 17 44 17c19 0 35-7 49-20c13-14 20-30 20-49c0-13-4-26-11-37c23-5 42-17 57-36c15-18 22-39 22-63z"/>
<glyph unicode="&#57376;" d="M341 247c0 3 0 5-2 7c-2 1-4 2-6 2l-60 0l0 94c0 2-1 4-2 6c-2 2-4 2-6 2l-52 0c-2 0-4 0-6-2c-1-2-2-4-2-6l0-94l-60 0c-2 0-4-1-6-3c-2-1-2-3-2-6c0-2 0-4 2-6l94-94c1-1 3-2 6-2c2 0 4 1 6 2l94 94c1 2 2 4 2 6z m171-59c0-29-10-53-30-73c-20-20-44-30-72-30l-291 0c-32 0-61 12-84 35c-23 24-35 52-35 85c0 23 6 44 19 64c12 19 29 34 50 44c-1 5-1 9-1 11c0 38 14 70 40 97c27 26 59 40 97 40c28 0 53-8 76-23c23-16 40-36 50-62c13 11 28 17 44 17c19 0 35-7 49-20c13-14 20-30 20-49c0-13-4-26-11-37c23-5 42-17 57-36c15-18 22-39 22-63z"/>
<glyph unicode="&#57377;" d="M320 347c0-2-1-4-3-6c-2-2-4-3-6-3c-3 0-5 1-7 3c-1 2-2 4-2 6c0 9-5 16-16 21c-10 4-20 7-30 7c-2 0-5 1-6 3c-2 1-3 4-3 6c0 2 1 5 3 6c1 2 4 3 6 3c10 0 19-1 28-4c10-3 18-9 25-16c7-7 11-16 11-26z m46 0c0 14-4 27-10 39c-7 12-15 21-26 29c-10 7-22 13-35 17c-13 5-26 7-39 7c-13 0-26-2-39-7c-13-4-25-10-35-17c-11-8-19-17-26-29c-6-12-10-25-10-39c0-19 7-36 20-51c2-2 5-5 8-9c4-5 7-8 9-10c25-29 38-57 40-85l66 0c2 28 15 56 40 85c2 2 5 5 9 10c3 4 6 7 8 9c13 15 20 32 20 51z m36 0c0-29-10-55-29-76c-9-9-16-18-21-25c-6-7-12-16-17-27c-6-11-9-21-10-31c9-5 13-13 13-23c0-7-2-14-7-19c5-5 7-11 7-18c0-10-4-18-13-23c3-5 4-9 4-14c0-8-3-15-9-20c-6-5-13-7-22-7c-4-8-10-15-17-20c-8-5-16-7-25-7c-9 0-17 2-25 7c-7 5-13 12-17 20c-9 0-16 2-22 7c-6 5-9 12-9 20c0 5 1 9 4 14c-9 5-13 13-13 23c0 7 2 13 7 18c-5 5-7 12-7 19c0 10 4 18 13 23c-1 10-4 20-10 31c-5 11-11 20-17 27c-5 7-12 16-21 25c-19 21-29 47-29 76c0 19 4 37 12 53c9 16 20 30 34 41c14 10 29 19 47 25c17 6 35 9 53 9c18 0 36-3 53-9c18-6 33-15 47-25c14-11 25-25 34-41c8-16 12-34 12-53z"/>
<glyph unicode="&#57378;" d="M512 174l0-55c0-3-1-5-3-7c-2-1-4-2-6-2l-393 0l0-55c0-3-1-5-3-7c-2-1-4-2-6-2c-3 0-5 1-7 3l-91 91c-2 2-3 4-3 6c0 3 1 5 3 7l91 91c2 2 4 3 7 3c2 0 4-1 6-3c2-2 3-4 3-6l0-55l393 0c2 0 4-1 6-3c2-2 3-4 3-6z m0 155c0-3-1-5-3-6l-91-92c-2-2-4-2-7-2c-2 0-4 0-6 2c-2 2-3 4-3 7l0 55l-393 0c-2 0-4 0-6 2c-2 2-3 4-3 7l0 55c0 2 1 4 3 6c2 2 4 3 6 3l393 0l0 55c0 2 1 4 3 6c2 2 4 3 6 3c3 0 5-1 7-3l91-91c2-2 3-4 3-7z"/>
<glyph unicode="&#57379;" d="M219 37l256 0l0 182l-118 0c-8 0-15 3-20 8c-5 6-8 12-8 20l0 119l-110 0z m74 411l0 18c0 3-1 5-3 7c-2 2-4 2-7 2l-201 0c-2 0-4 0-6-2c-2-2-3-4-3-7l0-18c0-2 1-5 3-6c2-2 4-3 6-3l201 0c3 0 5 1 7 3c2 1 3 4 3 6z m73-192l85 0l-85 85z m146-37l0-192c0-7-3-14-8-19c-5-5-12-8-19-8l-275 0c-7 0-14 3-19 8c-5 5-8 12-8 19l0 46l-156 0c-7 0-14 3-19 8c-5 5-8 12-8 20l0 384c0 7 3 14 8 19c5 5 12 8 19 8l311 0c8 0 14-3 20-8c5-5 8-12 8-19l0-94c4-3 7-5 10-8l117-117c5-5 9-12 13-21c4-10 6-18 6-26z"/>
<glyph unicode="&#57380;" d="M274 275l0-165c0-20-7-37-21-52c-15-14-32-21-52-21c-20 0-37 7-51 21c-15 15-22 32-22 52c0 5 2 9 5 13c4 3 8 5 13 5c5 0 10-2 13-5c4-4 6-8 6-13c0-10 3-18 11-26c7-7 16-11 25-11c10 0 18 4 26 11c7 8 11 16 11 26l0 165c6 3 12 4 18 4c6 0 12-1 18-4z m220-7c0-3-1-5-3-7c-2-2-4-2-6-2c-3 0-5 1-7 2c-9 9-18 16-27 20c-8 5-18 7-29 7c-13 0-25-4-36-11c-12-7-22-16-30-28c-1-1-3-4-5-8c-2-3-3-5-4-6c-2-4-5-5-8-5c-3 0-6 1-8 5c-1 1-2 3-4 6c-2 4-4 7-5 8c-8 12-18 21-30 28c-11 7-23 11-36 11c-13 0-25-4-36-11c-12-7-22-16-30-28c-1-1-3-4-5-8c-2-3-3-5-4-6c-2-4-5-5-8-5c-3 0-6 1-8 5c-1 1-2 3-4 6c-2 4-4 7-5 8c-8 12-18 21-30 28c-11 7-23 11-36 11c-11 0-21-2-29-7c-9-4-18-11-27-20c-2-1-4-2-7-2c-2 0-4 0-6 2c-2 2-3 4-3 7c0 1 0 1 1 2c8 35 25 65 49 91c24 26 53 45 85 58c32 13 67 20 103 20c27 0 53-4 78-12c26-7 50-18 71-32c21-14 40-32 55-53c16-22 27-46 33-72c1-1 1-1 1-2z m-220 207l0-28c-8 1-14 1-18 1c-4 0-10 0-18-1l0 28c0 5 2 10 5 13c4 4 8 6 13 6c5 0 9-2 13-6c3-3 5-8 5-13z"/>
<glyph unicode="&#57381;" d="M512 155l0-91c0-8-3-14-8-19c-5-6-12-8-19-8l-92 0c-7 0-14 2-19 8c-6 5-8 11-8 19l0 91c0 8 2 15 8 20c5 5 12 8 19 8l28 0l0 55l-147 0l0-55l28 0c7 0 14-3 19-8c5-5 8-12 8-20l0-91c0-8-3-14-8-19c-5-6-12-8-19-8l-92 0c-7 0-14 2-19 8c-5 5-8 11-8 19l0 91c0 8 3 15 8 20c5 5 12 8 19 8l28 0l0 55l-147 0l0-55l28 0c7 0 14-3 19-8c6-5 8-12 8-20l0-91c0-8-2-14-8-19c-5-6-12-8-19-8l-92 0c-7 0-14 2-19 8c-5 5-8 11-8 19l0 91c0 8 3 15 8 20c5 5 12 8 19 8l28 0l0 55c0 10 3 18 11 25c7 8 16 11 25 11l147 0l0 55l-28 0c-7 0-14 3-19 8c-5 5-8 12-8 20l0 91c0 8 3 14 8 19c5 6 12 8 19 8l92 0c7 0 14-2 19-8c5-5 8-11 8-19l0-91c0-8-3-15-8-20c-5-5-12-8-19-8l-28 0l0-55l147 0c9 0 18-3 25-11c8-7 11-15 11-25l0-55l28 0c7 0 14-3 19-8c5-5 8-12 8-20z"/>
<glyph unicode="&#57382;" d="M256 402c-39 0-75-6-109-20c-34-13-61-31-81-53c-19-23-29-47-29-73c0-21 6-42 20-61c14-19 33-36 58-50l24-14l-7-28c-5-17-12-34-20-49c29 12 55 28 78 49l13 11l16-2c13-2 25-2 37-2c39 0 75 6 109 20c34 13 61 31 81 53c19 23 29 47 29 73c0 26-10 50-29 73c-20 22-47 40-81 53c-34 14-70 20-109 20z m256-146c0-33-11-64-34-92c-23-28-54-50-93-66c-40-17-83-25-129-25c-13 0-27 1-41 2c-38-33-82-56-132-69c-9-2-20-4-32-6l-2 0c-3 0-5 1-8 3c-2 2-3 5-4 8l0 0c-1 1-1 2 0 4c0 1 0 2 0 2c0 1 1 2 2 3l1 3c0 0 1 1 2 2c2 2 2 3 3 3c1 1 4 5 8 10c5 5 8 8 10 10c2 3 5 6 9 12c4 5 7 10 9 14c3 5 5 10 8 17c3 7 5 14 8 22c-30 17-54 38-71 63c-17 25-26 51-26 80c0 33 11 64 34 92c23 28 54 50 93 66c40 17 83 25 129 25c46 0 89-8 129-25c39-16 70-38 93-66c23-28 34-59 34-92z"/>
<glyph unicode="&#57383;" d="M201 402c-29 0-56-5-82-15c-25-9-45-23-60-40c-15-17-22-35-22-54c0-16 5-31 15-46c10-14 24-27 42-37l28-16l-10-24c6 4 12 7 18 11l12 9l15-3c15-3 30-4 44-4c29 0 57 5 82 15c25 10 45 23 60 40c15 17 23 35 23 55c0 19-8 37-23 54c-15 17-35 31-60 40c-25 10-53 15-82 15z m0 37c37 0 70-7 101-20c31-13 56-31 73-53c18-22 27-47 27-73c0-27-9-51-27-74c-17-22-42-40-73-53c-31-13-64-20-101-20c-16 0-33 2-50 5c-24-17-50-29-80-37c-6-1-15-3-24-4l-1 0c-2 0-4 0-6 2c-2 2-3 4-3 6c0 1 0 1 0 2c0 1 0 1 0 2c0 0 0 1 0 1l1 2c0 0 0 0 1 1c1 1 1 2 1 2c0 0 1 0 1 1c1 1 2 2 2 2c1 1 3 3 6 7c4 3 6 6 8 8c1 2 3 5 6 8c3 4 5 8 7 11c2 4 4 8 6 13c-24 14-42 31-56 51c-13 20-20 41-20 64c0 26 9 51 27 73c18 22 42 40 73 53c31 13 65 20 101 20z m235-334c2-5 4-9 6-13c2-4 4-7 7-11c3-3 5-6 6-8c2-2 4-5 8-8c3-4 5-6 6-8c1 0 1 0 2-1c0-1 1-1 1-1c0-1 1-1 1-2c0 0 1-1 1-1l1-2c0 0 0 0 0-1c1-2 1-2 0-2c0 0 0-1 0-2c0-3-2-5-4-6c-1-2-4-3-6-2c-9 1-18 2-24 4c-30 8-56 20-80 37c-17-3-34-5-50-5c-52 0-97 13-135 38c11-1 19-1 25-1c31 0 60 4 88 13c29 8 54 20 76 36c24 18 42 38 55 61c12 23 19 47 19 73c0 14-2 29-7 43c25-14 44-30 59-51c14-20 21-42 21-66c0-22-7-44-20-64c-14-20-32-36-56-50z"/>
<glyph unicode="&#57384;" d="M506 73c0-10-4-19-11-26l-30-30c-8-7-16-11-26-11c-10 0-19 4-26 11l-104 104c-7 6-10 15-10 25c0 10 4 20 12 28l-73 73l-36-36c-3-3-6-4-10-4c-4 0-7 1-10 4c1-1 2-2 4-4c2-1 3-3 3-3c1-1 2-2 3-4c2-1 3-2 3-3c1-1 1-3 2-4c1-2 1-3 1-5c1-2 1-3 1-5c0-7-3-14-8-20c-1 0-2-2-5-5c-2-3-4-5-5-6c-1-1-3-2-6-4c-2-2-4-4-6-5c-2-1-4-1-6-2c-3-1-5-2-8-2c-7 0-14 3-19 8l-117 117c-5 5-8 12-8 19c0 3 1 5 2 8c1 2 1 4 2 6c1 2 3 4 5 6c2 3 3 5 4 6c1 1 3 3 6 5c3 3 5 4 5 5c6 5 13 8 20 8c2 0 3 0 5-1c2 0 3 0 5-1c1-1 3-1 4-2c1 0 2-1 3-3c2-1 3-2 4-3c0 0 2-1 3-3c2-2 3-3 4-4c-3 3-4 6-4 10c0 4 1 7 4 10l99 99c3 3 6 4 10 4c4 0 7-1 10-4c-1 1-2 2-4 4c-2 1-3 3-3 3c-1 1-2 2-3 4c-2 1-3 2-3 3c-1 1-1 3-2 4c-1 2-1 3-1 5c-1 2-1 3-1 5c0 7 3 14 8 20c1 0 2 2 5 5c2 3 4 5 5 6c1 1 3 2 6 4c2 2 4 4 6 5c2 1 4 1 6 2c3 1 5 2 8 2c7 0 14-3 19-8l117-117c5-5 8-12 8-19c0-3-1-5-2-8c-1-2-1-4-2-6c-1-2-3-4-5-6c-2-3-3-5-4-6c-1-1-3-3-6-5c-3-3-5-4-5-5c-6-5-13-8-20-8c-2 0-3 0-5 1c-2 0-3 0-5 1c-1 1-3 1-4 2c-1 0-2 1-3 3c-2 1-3 2-4 3c0 0-2 1-3 3c-2 2-3 3-4 4c3-3 4-6 4-10c0-4-1-7-4-10l-36-36l73-73c8 8 18 12 28 12c10 0 18-3 26-10l103-104c7-7 11-16 11-26z"/>
<glyph unicode="&#57385;" d="M110 183c0 10-4 19-11 26c-7 7-16 10-26 10c-10 0-19-3-26-10c-7-7-10-16-10-26c0-10 3-19 10-26c7-7 16-11 26-11c10 0 19 4 26 11c7 7 11 16 11 26z m55 128c0 10-4 19-11 26c-7 7-16 10-26 10c-10 0-19-3-26-10c-7-7-11-16-11-26c0-10 4-19 11-26c7-7 16-11 26-11c10 0 19 4 26 11c7 7 11 16 11 26z m122-138l29 110c1 5 0 9-2 13c-3 5-7 8-11 9c-5 1-10 1-14-2c-5-3-7-6-9-11l-29-109c-11-1-21-6-30-13c-9-7-15-17-18-28c-4-15-2-29 6-42c7-13 18-21 33-25c15-4 29-2 42 6c13 7 21 18 25 33c3 11 3 23-2 33c-4 11-11 20-20 26z m188 10c0 10-3 19-10 26c-7 7-16 10-26 10c-10 0-19-3-26-10c-7-7-11-16-11-26c0-10 4-19 11-26c7-7 16-11 26-11c10 0 19 4 26 11c7 7 10 16 10 26z m-182 183c0 10-4 18-11 26c-7 7-16 10-26 10c-10 0-19-3-26-10c-7-8-11-16-11-26c0-10 4-19 11-26c7-7 16-11 26-11c10 0 19 4 26 11c7 7 11 16 11 26z m128-55c0 10-4 19-11 26c-7 7-16 10-26 10c-10 0-19-3-26-10c-7-7-11-16-11-26c0-10 4-19 11-26c7-7 16-11 26-11c10 0 19 4 26 11c7 7 11 16 11 26z m91-128c0-50-13-96-40-138c-4-6-9-8-16-8l-400 0c-7 0-12 2-16 8c-27 42-40 88-40 138c0 35 7 68 20 99c14 32 32 59 55 82c23 23 50 41 82 55c31 13 64 20 99 20c35 0 68-7 99-20c32-14 59-32 82-55c23-23 41-50 55-82c13-31 20-64 20-99z"/>
<glyph unicode="&#57386;" d="M475 256c0-30-5-58-17-85c-12-27-27-51-47-70c-19-20-43-35-70-47c-27-12-55-17-85-17c-33 0-64 6-93 20c-30 14-55 34-76 59c-1 2-2 4-2 6c0 3 1 4 3 6l39 39c2 2 4 3 7 3c3 0 5-2 7-3c13-19 31-33 51-42c20-10 41-15 64-15c20 0 39 4 57 11c18 8 33 18 46 32c14 13 24 28 32 46c7 18 11 37 11 57c0 20-4 39-11 57c-8 18-18 33-32 46c-13 14-28 24-46 32c-18 7-37 11-57 11c-19 0-37-3-54-10c-17-7-32-16-45-29l39-39c6-6 7-13 4-20c-4-8-9-11-17-11l-128 0c-5 0-9 1-13 5c-4 4-5 8-5 13l0 128c0 8 3 13 11 17c7 3 14 2 20-4l37-37c20 19 44 34 70 45c26 10 53 15 81 15c30 0 58-5 85-17c27-12 51-27 70-47c20-19 35-43 47-70c12-27 17-55 17-85z"/>
<glyph unicode="&#57387;" d="M136 333l0-283l-94 0l0 283z m6 88c0-14-4-26-14-35c-10-9-23-14-39-14l0 0c-16 0-29 5-38 14c-10 9-14 21-14 35c0 14 4 26 14 35c10 9 23 14 39 14c16 0 28-5 38-14c9-9 14-21 14-35z m333-208l0-163l-94 0l0 152c0 20-3 35-11 47c-8 11-20 17-36 17c-12 0-22-4-30-10c-9-7-15-15-19-25c-2-5-3-13-3-23l0-158l-94 0c1 76 1 138 1 185c0 47 0 76 0 85l-1 13l94 0l0-41l0 0c4 6 7 12 11 16c4 5 10 10 17 15c6 5 15 10 24 13c10 3 21 4 33 4c33 0 59-11 79-32c20-22 29-54 29-95z"/>
<glyph unicode="&#57388;" d="M512 309l0-227c0-12-4-23-13-32c-9-9-20-13-33-13l-420 0c-13 0-24 4-33 13c-9 9-13 20-13 32l0 227c8-9 18-17 29-25c69-47 116-79 142-98c11-8 20-15 26-19c7-4 16-9 27-14c12-4 22-7 32-7l0 0c10 0 20 3 32 7c11 5 20 10 27 14c6 4 15 11 26 19c33 23 80 56 142 98c11 8 21 16 29 25z m0 84c0-15-5-29-14-43c-9-14-21-25-35-35c-71-50-116-81-134-93c-1-1-6-4-12-9c-6-4-11-8-15-11c-4-2-9-5-15-9c-6-3-11-6-16-8c-6-1-10-2-15-2l0 0c-5 0-9 1-15 2c-5 2-10 5-16 8c-6 4-11 7-15 9c-4 3-9 7-15 11c-6 5-11 8-12 9c-18 12-43 30-75 52c-33 23-52 36-59 41c-12 8-23 19-33 33c-11 14-16 27-16 39c0 15 4 27 12 37c8 10 19 15 34 15l420 0c13 0 23-5 32-14c9-9 14-19 14-32z"/>
<glyph unicode="&#57389;" d="M402 311c0-5-2-9-5-13c-4-4-8-5-13-5l-256 0c-5 0-9 1-13 5c-3 4-5 8-5 13c0 5 2 9 5 13l128 128c4 3 8 5 13 5c5 0 9-2 13-5l128-128c3-4 5-8 5-13z"/>
<glyph unicode="&#57390;" d="M64 73l174 0l0 329l-183 0l0-320c0-2 1-4 3-6c1-2 4-3 6-3z m393 9l0 320l-183 0l0-329l174 0c2 0 5 1 6 3c2 2 3 4 3 6z m37 348l0-348c0-12-5-23-14-32c-9-9-19-13-32-13l-384 0c-13 0-23 4-32 13c-9 9-14 20-14 32l0 348c0 12 5 23 14 32c9 9 19 13 32 13l384 0c13 0 23-4 32-13c9-9 14-20 14-32z"/>
<glyph unicode="&#57391;" d="M402 201c0-5-2-9-5-13l-128-128c-4-3-8-5-13-5c-5 0-9 2-13 5l-128 128c-3 4-5 8-5 13c0 5 2 9 5 13c4 4 8 5 13 5l256 0c5 0 9-1 13-5c3-4 5-8 5-13z m0 110c0-5-2-9-5-13c-4-4-8-5-13-5l-256 0c-5 0-9 1-13 5c-3 4-5 8-5 13c0 5 2 9 5 13l128 128c4 3 8 5 13 5c5 0 9-2 13-5l128-128c3-4 5-8 5-13z"/>
<glyph unicode="&#57392;" d="M347 384l0-256c0-5-1-9-5-13c-4-3-8-5-13-5c-5 0-9 2-13 5l-128 128c-3 4-5 8-5 13c0 5 2 9 5 13l128 128c4 3 8 5 13 5c5 0 9-2 13-5c4-4 5-8 5-13z"/>
<glyph unicode="&#57393;" d="M329 256c0-5-2-9-5-13l-128-128c-4-3-8-5-13-5c-5 0-9 2-13 5c-4 4-5 8-5 13l0 256c0 5 1 9 5 13c4 3 8 5 13 5c5 0 9-2 13-5l128-128c3-4 5-8 5-13z"/>
<glyph unicode="&#57394;" d="M205 188l102 0l0 25l-34 0l0 120l-30 0l-40-37l21-21c7 7 12 12 14 15l1 0l0-77l-34 0z m136 68c0-12-2-25-5-38c-4-13-9-25-16-36c-7-11-16-20-27-27c-11-6-24-10-37-10c-13 0-26 4-37 10c-11 7-20 16-27 27c-7 11-12 23-16 36c-3 13-5 26-5 38c0 12 2 25 5 38c4 13 9 25 16 36c7 11 16 20 27 27c11 6 24 10 37 10c13 0 26-4 37-10c11-7 20-16 27-27c7-11 12-23 16-36c3-13 5-26 5-38z m137-68l0 136c-19 0-35 7-48 20c-14 14-20 30-20 49l-308 0c0-19-6-35-20-49c-13-13-29-20-48-20l0-136c19 0 35-7 48-20c14-14 20-30 20-49l308 0c0 19 6 35 20 49c13 13 29 20 48 20z m34 222l0-308c0-4-2-8-5-12c-3-3-7-5-12-5l-478 0c-5 0-9 2-12 5c-3 4-5 8-5 12l0 308c0 4 2 8 5 12c3 3 7 5 12 5l478 0c5 0 9-2 12-5c3-4 5-8 5-12z"/>
<glyph unicode="&#57395;" d="M269 93c0 4-1 8-2 12c-1 4-1 7-2 10c-1 3-3 7-5 10c-3 4-5 6-6 9c-2 2-5 5-8 8c-3 4-6 6-8 8c-2 1-5 4-9 7c-4 3-7 5-9 6c-1 2-5 4-9 7c-5 3-8 5-9 6c-3 0-8 1-14 1c-11 0-21-1-31-2c-9-2-20-4-30-8c-11-3-20-7-28-13c-8-5-15-12-20-21c-5-9-8-19-8-31c0-13 4-24 10-34c7-11 16-19 27-24c11-6 22-11 34-13c12-3 24-5 37-5c11 0 22 1 32 4c10 2 19 6 28 11c9 5 16 12 22 21c5 9 8 19 8 31z m-35 247c0 11-1 23-4 36c-4 13-8 25-14 37c-6 12-14 22-24 30c-10 8-21 12-34 12c-18 0-31-7-41-20c-10-13-15-29-15-47c0-9 1-18 4-28c2-10 5-20 10-30c4-10 10-19 16-27c6-8 13-14 22-19c9-5 18-7 28-7c18 0 32 5 40 17c8 11 12 27 12 46z m-37 135l125 0l-39-22l-38 0c13-9 24-21 31-36c7-16 11-32 11-48c0-15-2-27-6-38c-5-11-10-20-16-26c-7-7-13-13-19-19c-7-5-12-11-16-17c-5-6-7-13-7-20c0-5 2-9 5-14c3-5 7-9 12-14c5-4 11-9 17-14c6-4 12-10 18-15c6-6 12-13 17-19c5-7 9-15 12-25c3-9 5-19 5-30c0-30-13-57-40-81c-29-25-69-37-120-37c-11 0-23 1-34 3c-12 2-23 5-35 9c-12 5-22 10-31 17c-9 7-16 15-22 25c-6 11-9 22-9 35c0 12 4 25 11 39c6 12 15 22 27 31c12 9 26 16 42 21c15 4 30 8 44 10c14 2 28 3 43 4c-12 16-18 30-18 42c0 3 0 5 0 7c1 2 1 4 2 6c0 1 1 3 2 6c1 2 1 4 2 6c-8-1-14-2-20-2c-29 0-53 10-73 28c-20 19-31 43-31 71c0 26 9 50 28 71c18 21 40 35 66 41c18 4 36 5 54 5z m297-73l0-36l-73 0l0-73l-37 0l0 73l-73 0l0 36l73 0l0 73l37 0l0-73z"/>
<glyph unicode="&#57396;" d="M393 475c23 0 42-8 58-24c16-16 24-35 24-58l0-274c0-23-8-42-24-58c-16-16-35-24-58-24l-207 0c16 23 26 43 31 60c2 6 7 26 15 59c4-7 11-14 21-19c10-5 21-8 32-8c35 0 63 14 85 42c21 28 32 64 32 107c0 16-3 31-10 46c-6 15-16 29-27 40c-12 12-27 21-44 28c-17 7-36 10-56 10c-20 0-38-2-56-8c-17-5-32-13-43-22c-12-9-23-19-31-31c-9-12-15-24-19-37c-4-12-6-25-6-37c0-20 3-37 11-52c8-15 19-25 33-31c3-1 5-1 7 0c2 1 3 2 4 5c2 9 3 14 4 18c2 4 1 8-3 12c-9 11-14 26-14 42c0 29 10 53 30 74c19 20 45 30 77 30c28 0 50-8 66-23c16-15 24-35 24-60c0-32-6-59-19-82c-13-22-30-33-50-33c-11 0-20 4-27 12c-7 8-10 18-7 30c2 6 4 15 8 26c3 11 6 21 8 29c2 8 3 16 3 21c0 10-2 18-7 24c-5 6-13 9-22 9c-12 0-21-5-30-16c-8-11-12-24-12-40c0-14 3-25 7-35l-28-118c-4-19-5-43-2-72l-52 0c-23 0-42 8-58 24c-16 16-24 35-24 58l0 274c0 23 8 42 24 58c16 16 35 24 58 24z"/>
<glyph unicode="&#57398;" d="M475 256c0-40-9-77-29-110c-20-34-46-60-80-80c-33-20-70-29-110-29c-21 0-42 3-62 9c11 17 18 33 22 47c2 6 7 26 15 60c4-8 11-14 21-19c10-6 21-9 33-9c23 0 43 7 62 20c18 13 32 31 42 54c9 23 14 48 14 77c0 22-5 42-17 61c-11 19-27 35-49 47c-21 12-46 18-73 18c-20 0-38-3-56-9c-17-5-32-12-44-22c-12-9-22-19-31-31c-9-12-15-24-19-37c-4-13-6-26-6-38c0-20 4-38 11-53c8-15 19-25 34-31c5-3 9-1 10 5c1 2 2 5 3 9c1 5 2 8 2 9c1 4 0 8-3 12c-10 12-15 26-15 43c0 29 10 54 30 74c20 21 46 31 78 31c29 0 51-8 68-23c16-16 24-36 24-61c0-32-7-60-20-83c-13-22-30-34-50-34c-12 0-21 5-28 13c-7 8-9 18-7 30c2 6 4 15 8 26c4 12 6 21 9 30c2 8 3 16 3 21c0 10-3 18-8 24c-5 6-12 10-22 10c-12 0-22-6-30-17c-8-11-12-24-12-40c0-14 2-26 7-35l-28-120c-4-13-5-30-4-50c-39 17-71 44-95 80c-24 36-36 77-36 121c0 40 9 77 29 110c20 34 46 60 80 80c33 20 70 29 110 29c40 0 77-9 110-29c34-20 60-46 80-80c20-33 29-70 29-110z"/>
<glyph unicode="&#57399;" d="M183 110c0 10-4 18-11 25c-7 8-16 11-26 11c-10 0-18-3-25-11c-8-7-11-15-11-25c0-10 3-19 11-26c7-7 15-11 25-11c10 0 19 4 26 11c7 7 11 16 11 26z m-110 146l110 0l0 73l-45 0c-3 0-5-1-7-2l-55-56c-2-2-3-4-3-6z m366-146c0 10-4 18-11 25c-7 8-16 11-26 11c-10 0-18-3-25-11c-8-7-11-15-11-25c0-10 3-19 11-26c7-7 15-11 25-11c10 0 19 4 26 11c7 7 11 16 11 26z m73 311l0-293c0-3 0-5-1-8c-1-2-2-4-4-5c-2-1-3-2-5-3c-1-1-3-2-6-2c-4 0-6 0-7 0c-1-1-3-1-7 0c-4 0-6 0-7 0c0-20-7-38-21-52c-14-14-32-21-52-21c-20 0-37 7-51 21c-15 14-22 32-22 52l-110 0c0-20-7-38-21-52c-14-14-32-21-52-21c-20 0-37 7-51 21c-15 14-22 32-22 52l-18 0c-1 0-3 0-7 0c-3-1-6-1-7 0c-1 0-3 0-6 0c-3 0-6 1-7 2c-1 1-3 2-5 3c-2 1-3 3-4 5c0 3-1 5-1 8c0 5 2 9 6 13c3 3 8 5 13 5l0 92c0 1 0 5-1 10c0 5 0 8 0 11c1 2 1 5 1 9c1 5 1 8 2 11c1 3 2 5 4 9c2 3 4 6 6 8l57 57c4 3 8 7 14 9c6 2 12 4 17 4l46 0l0 55c0 5 2 9 5 12c4 4 8 6 13 6l293 0c5 0 9-2 13-6c3-3 5-7 5-12z"/>
<glyph unicode="&#57400;" d="M358 346l84 84l-31 30l-83-83z m128 84c0-5-2-10-5-13l-368-368c-3-3-7-5-12-5c-6 0-10 2-13 5l-57 57c-3 3-5 8-5 13c0 5 2 9 5 13l368 367c3 4 7 5 12 5c6 0 10-1 13-5l57-56c3-4 5-8 5-13z m-386 54l28-9l-28-8l-9-28l-8 28l-28 8l28 9l8 28z m100-46l56-17l-56-18l-17-56l-17 56l-56 18l56 17l17 56z m266-137l28-8l-28-9l-9-28l-8 28l-28 9l28 8l8 28z m-183 183l28-9l-28-8l-9-28l-8 28l-28 8l28 9l8 28z"/>
<glyph unicode="&#57401;" d="M165 119l0 55c0 2-1 5-3 6c-2 2-4 3-7 3l-91 0c-3 0-5-1-7-3c-1-1-2-4-2-6l0-55c0-3 1-5 2-7c2-1 4-2 7-2l91 0c3 0 5 1 7 2c2 2 3 4 3 7z m0 110l0 54c0 3-1 5-3 7c-2 2-4 3-7 3l-91 0c-3 0-5-1-7-3c-1-2-2-4-2-7l0-54c0-3 1-5 2-7c2-2 4-3 7-3l91 0c3 0 5 1 7 3c2 2 3 4 3 7z m146-110l0 55c0 2-1 5-3 6c-1 2-4 3-6 3l-92 0c-2 0-5-1-6-3c-2-1-3-4-3-6l0-55c0-3 1-5 3-7c1-1 4-2 6-2l92 0c2 0 5 1 6 2c2 2 3 4 3 7z m-146 219l0 55c0 3-1 5-3 7c-2 1-4 2-7 2l-91 0c-3 0-5-1-7-2c-1-2-2-4-2-7l0-55c0-2 1-5 2-6c2-2 4-3 7-3l91 0c3 0 5 1 7 3c2 1 3 4 3 6z m146-109l0 54c0 3-1 5-3 7c-1 2-4 3-6 3l-92 0c-2 0-5-1-6-3c-2-2-3-4-3-7l0-54c0-3 1-5 3-7c1-2 4-3 6-3l92 0c2 0 5 1 6 3c2 2 3 4 3 7z m146-110l0 55c0 2-1 5-2 6c-2 2-4 3-7 3l-91 0c-3 0-5-1-7-3c-2-1-3-4-3-6l0-55c0-3 1-5 3-7c2-1 4-2 7-2l91 0c3 0 5 1 7 2c1 2 2 4 2 7z m-146 219l0 55c0 3-1 5-3 7c-1 1-4 2-6 2l-92 0c-2 0-5-1-6-2c-2-2-3-4-3-7l0-55c0-2 1-5 3-6c1-2 4-3 6-3l92 0c2 0 5 1 6 3c2 1 3 4 3 6z m146-109l0 54c0 3-1 5-2 7c-2 2-4 3-7 3l-91 0c-3 0-5-1-7-3c-2-2-3-4-3-7l0-54c0-3 1-5 3-7c2-2 4-3 7-3l91 0c3 0 5 1 7 3c1 2 2 4 2 7z m0 109l0 55c0 3-1 5-2 7c-2 1-4 2-7 2l-91 0c-3 0-5-1-7-2c-2-2-3-4-3-7l0-55c0-2 1-5 3-6c2-2 4-3 7-3l91 0c3 0 5 1 7 3c1 1 2 4 2 6z m37 92l0-311c0-13-5-23-14-32c-9-9-19-14-32-14l-384 0c-13 0-23 5-32 14c-9 9-14 19-14 32l0 311c0 12 5 23 14 32c9 9 19 13 32 13l384 0c13 0 23-4 32-13c9-9 14-20 14-32z"/>
<glyph unicode="&#57402;" d="M50 448c-7 1-11 1-13 1l0 26c2 0 6 0 11 0c11 0 22-1 32-1c25-2 41-2 47-2c17 0 33 0 48 1c23 0 36 1 42 1c11 0 19 0 25 1l-1-4l1-19l0-2c-11-2-23-3-35-3c-12 0-19-2-23-7c-2-3-4-15-4-38c0-2 0-5 0-9c1-4 1-6 1-7l0-66l4-80c1-23 6-43 14-57c7-12 16-20 28-27c17-9 33-13 50-13c20 0 38 3 55 8c11 3 20 8 28 14c9 7 16 13 19 19c7 10 12 21 15 32c4 14 6 36 6 66c0 15 0 27-1 36c-1 10-2 21-3 35c-2 14-3 29-4 46l-1 17c-1 12-3 21-7 25c-6 7-14 10-22 10l-29-1l-4 1l1 24l24 0l59-2c14-1 33 0 56 2l5 0c1-7 1-12 1-15c0-1 0-4-1-9c-8-2-16-3-24-3c-14-2-21-4-22-5c-3-3-5-7-5-12c0-1 1-4 1-8c0-3 0-6 0-8c2-4 4-42 7-114c1-37-1-66-5-86c-3-15-6-27-11-35c-8-13-18-24-32-35c-15-11-32-20-52-26c-21-6-45-9-73-9c-32 0-59 4-81 13c-23 9-40 20-52 35c-11 14-19 33-23 55c-3 16-5 38-5 68l0 95c0 36-1 56-5 61c-4 7-18 11-42 11z m425-402l0 18c0 3 0 5-2 7c-2 1-4 2-7 2l-420 0c-3 0-5-1-7-2c-2-2-2-4-2-7l0-18c0-3 0-5 2-7c2-2 4-2 7-2l420 0c3 0 5 0 7 2c2 2 2 4 2 7z"/>
<glyph unicode="&#57403;" d="M503 256c3 0 5-1 6-3c2-1 3-3 3-6l0-18c0-3-1-5-3-7c-1-2-3-3-6-3l-494 0c-3 0-5 1-6 3c-2 2-3 4-3 7l0 18c0 3 1 5 3 6c1 2 3 3 6 3z m-365 18c-5 7-10 15-15 23c-9 19-13 37-13 54c0 34 12 64 38 88c25 24 63 36 112 36c10 0 26-1 48-5c13-2 29-7 51-14c1-7 3-18 6-33c2-24 4-41 4-53c0-3-1-7-2-13l-3 0l-24 1l-4 1c-10 28-20 48-30 58c-16 18-36 26-60 26c-21 0-39-5-52-16c-12-11-19-25-19-42c0-14 6-27 19-40c13-13 39-25 80-37c13-4 29-10 49-19c11-5 20-10 27-15z m145-73l117 0c2-7 2-16 2-26c0-21-4-41-11-61c-5-10-12-20-21-29c-7-7-17-15-31-24c-15-9-30-15-44-18c-15-4-34-6-58-6c-21 0-40 2-55 6l-40 12c-11 3-18 5-21 8c-1 1-2 3-2 6l0 4c0 20 0 35-1 44c0 6 0 12 0 20l1 10l0 13l29 0c3-6 6-13 9-20c2-7 5-12 6-16c1-4 3-6 4-8c6-11 14-20 22-27c9-6 19-12 30-16c12-4 24-6 38-6c12 0 26 2 40 8c15 5 26 13 35 24c9 12 13 24 13 37c0 16-8 31-23 45c-6 5-20 12-39 20z"/>
<glyph unicode="&#57404;" d="M109 49c0-15-5-27-16-36c-10-9-23-13-38-13c-21 0-37 6-50 19l17 25c9-9 19-13 30-13c6 0 10 2 14 4c5 3 7 7 7 12c0 13-10 18-30 16l-8 16c2 2 5 6 9 13c5 6 9 11 13 15c3 4 7 8 10 11l0 1c-3 0-8-1-14-1c-6 0-11 0-14 0l0-15l-30 0l0 43l95 0l0-25l-27-33c10-2 18-7 23-14c6-7 9-15 9-25z m0 179l0-45l-103 0c-1 7-2 12-2 15c0 10 3 19 7 27c4 8 10 14 16 19c6 5 13 10 19 14c6 4 12 8 16 12c5 4 7 9 7 13c0 5-2 9-4 11c-3 3-7 4-12 4c-8 0-16-6-23-17l-24 17c5 10 11 18 20 23c9 5 20 8 31 8c13 0 25-4 35-12c9-8 14-18 14-32c0-9-3-18-10-26c-6-8-13-14-21-18c-8-5-15-10-22-15c-6-5-10-10-10-15l36 0l0 17z m403-91l0-55c0-2-1-4-3-6c-2-2-4-3-6-3l-348 0c-2 0-4 1-6 3c-2 2-3 4-3 6l0 55c0 3 1 5 3 7c2 1 4 2 6 2l348 0c2 0 4-1 6-2c2-2 3-4 3-7z m-402 257l0-28l-96 0l0 28l31 0c0 8 0 19 0 35c0 15 0 27 0 34l0 4l-1 0c-1-3-6-9-14-16l-20 22l39 36l30 0l0-115z m402-111l0-54c0-3-1-5-3-7c-2-2-4-3-6-3l-348 0c-2 0-4 1-6 3c-2 2-3 4-3 7l0 54c0 3 1 5 3 7c2 2 4 3 6 3l348 0c2 0 4-1 6-3c2-2 3-4 3-7z m0 147l0-55c0-3-1-5-3-7c-2-1-4-2-6-2l-348 0c-2 0-4 1-6 2c-2 2-3 4-3 7l0 55c0 2 1 4 3 6c2 2 4 3 6 3l348 0c2 0 4-1 6-3c2-2 3-4 3-6z"/>
<glyph unicode="&#57405;" d="M110 110c0-16-6-28-16-39c-11-11-24-16-39-16c-15 0-28 5-39 16c-11 11-16 23-16 39c0 15 5 28 16 39c11 10 24 16 39 16c15 0 28-6 39-16c10-11 16-24 16-39z m0 146c0-15-6-28-16-39c-11-11-24-16-39-16c-15 0-28 5-39 16c-11 11-16 24-16 39c0 15 5 28 16 39c11 11 24 16 39 16c15 0 28-5 39-16c10-11 16-24 16-39z m402-119l0-55c0-2-1-4-3-6c-2-2-4-3-6-3l-348 0c-2 0-4 1-6 3c-2 2-3 4-3 6l0 55c0 3 1 5 3 7c2 1 4 2 6 2l348 0c2 0 4-1 6-2c2-2 3-4 3-7z m-402 265c0-15-6-28-16-39c-11-10-24-16-39-16c-15 0-28 6-39 16c-11 11-16 24-16 39c0 16 5 28 16 39c11 11 24 16 39 16c15 0 28-5 39-16c10-11 16-23 16-39z m402-119l0-54c0-3-1-5-3-7c-2-2-4-3-6-3l-348 0c-2 0-4 1-6 3c-2 2-3 4-3 7l0 54c0 3 1 5 3 7c2 2 4 3 6 3l348 0c2 0 4-1 6-3c2-2 3-4 3-7z m0 147l0-55c0-3-1-5-3-7c-2-1-4-2-6-2l-348 0c-2 0-4 1-6 2c-2 2-3 4-3 7l0 55c0 2 1 4 3 6c2 2 4 3 6 3l348 0c2 0 4-1 6-3c2-2 3-4 3-6z"/>
<glyph unicode="&#57406;" d="M475 393l0-274c0-23-8-42-24-58c-16-16-35-24-58-24l-274 0c-23 0-42 8-58 24c-16 16-24 35-24 58l0 274c0 23 8 42 24 58c16 16 35 24 58 24l274 0c23 0 42-8 58-24c16-16 24-35 24-58z"/>
<glyph unicode="&#57407;" d="M146 73l220 0l0 110l-220 0z m256 0l37 0l0 256c0 3-1 6-3 11c-2 5-4 8-6 10l-80 80c-2 2-5 4-10 6c-4 2-8 3-11 3l0-119c0-8-3-14-8-19c-5-6-12-8-19-8l-165 0c-7 0-14 2-19 8c-6 5-8 11-8 19l0 119l-37 0l0-366l37 0l0 119c0 8 2 14 8 19c5 6 12 8 19 8l238 0c7 0 14-2 19-8c6-5 8-11 8-19z m-109 265l0 92c0 2-1 4-3 6c-2 2-4 3-7 3l-54 0c-3 0-5-1-7-3c-2-2-3-4-3-6l0-92c0-2 1-4 3-6c2-2 4-3 7-3l54 0c3 0 5 1 7 3c2 2 3 4 3 6z m182-9l0-265c0-8-2-14-8-19c-5-6-11-8-19-8l-384 0c-8 0-14 2-19 8c-6 5-8 11-8 19l0 384c0 8 2 14 8 19c5 6 11 8 19 8l265 0c8 0 16-1 25-5c9-4 17-9 22-14l80-80c5-5 10-13 14-22c4-9 5-17 5-25z"/>
<glyph unicode="&#57408;" d="M456 116c0-22-8-41-23-56c-15-15-33-22-56-22c-25 0-48 9-67 28l-222 222c-21 22-32 48-32 77c0 31 10 56 31 78c21 21 47 31 77 31c30 0 56-10 78-32l173-173c2-2 3-4 3-6c0-3-3-8-9-14c-6-6-10-8-13-8c-2 0-5 1-7 2l-173 174c-15 15-32 22-51 22c-21 0-38-7-52-22c-13-14-20-31-20-51c0-20 7-38 21-52l222-222c12-12 26-18 41-18c13 0 23 4 31 12c8 8 12 18 12 30c0 16-6 30-18 42l-166 166c-5 4-11 7-17 7c-6 0-11-2-14-6c-4-3-6-8-6-14c0-6 3-11 8-16l117-118c2-1 3-4 3-6c0-3-3-7-9-13c-6-6-11-9-14-9c-2 0-4 1-6 3l-117 117c-12 11-18 26-18 42c0 16 5 29 16 40c11 11 24 16 40 16c17 0 31-6 42-18l166-166c19-18 29-41 29-67z"/>
<glyph unicode="&#57409;" d="M274 256c5 0 10-2 13-5c4-4 6-8 6-13c0-5-2-10-6-13c-3-4-8-6-13-6c-5 0-9 2-13 6c-3 3-5 8-5 13c0 5 2 9 5 13c4 3 8 5 13 5z m86-18l145-114c5-4 8-9 7-16c-1-7-4-12-10-15l-37-18c-2-1-5-2-8-2c-3 0-6 1-9 2l-197 111l-31-19c-2-1-3-1-4-1c3-10 4-19 3-28c-1-15-7-29-16-42c-9-14-22-25-38-35c-25-16-51-24-79-24c-26 0-47 7-63 22c-17 16-25 36-23 59c2 14 7 28 16 42c10 14 22 25 38 35c25 16 51 24 79 24c16 0 30-3 43-8c2 2 4 4 7 6l34 21l-34 21c-3 1-5 3-7 6c-13-6-27-9-43-9c-28 0-54 8-79 24c-16 10-28 22-38 35c-9 14-14 28-16 42c-1 12 1 22 5 33c4 10 10 19 18 26c16 15 37 23 63 23c28 0 54-8 79-24c16-10 29-22 38-35c9-14 15-28 16-43c1-9 0-18-3-27c1 0 2-1 4-2l31-19l197 111c3 2 6 2 9 2c3 0 6 0 8-2l37-18c6-3 9-8 10-15c1-6-2-12-7-16z m-195 74c9 8 11 18 6 31c-4 12-14 24-30 33c-17 12-36 17-55 17c-14 0-25-3-32-10c-9-8-11-18-6-31c5-13 15-24 30-33c18-12 36-17 55-17c14 0 25 3 32 10z m-24-213c16 10 26 21 30 34c5 12 3 22-6 30c-7 7-18 11-32 11c-19 0-37-6-55-17c-15-10-25-21-30-34c-5-12-3-22 6-30c7-7 18-11 32-11c19 0 38 6 55 17z m51 175l27-16l0 3c0 7 4 12 10 16l4 2l-23 14l-7-8c-1 0-2-1-3-3c-1-2-2-3-3-3c-1-1-1-1-2-1c0-1 0-1 0-1z m64-64l27-9l211 165l-37 18l-219-123l0-32l-46-28l3-2c0-1 1-1 2-2c0-1 1-2 3-3c1-2 2-3 3-4l7-7z m201-119l37 19l-149 116l-50-39c-1-1-2-1-4-2z"/>
<glyph unicode="&#57410;" d="M485 402c7 0 14-2 19-8c5-5 8-12 8-19l0-348c0-7-3-14-8-19c-5-5-12-8-19-8l-275 0c-7 0-14 3-19 8c-5 5-8 12-8 19l0 83l-156 0c-7 0-14 2-19 8c-5 5-8 12-8 19l0 192c0 8 2 16 6 25c4 9 8 17 13 22l117 117c5 5 13 9 22 13c9 4 17 6 25 6l119 0c7 0 14-3 19-8c5-5 8-12 8-19l0-94c13 7 25 11 37 11z m-156-61l-85-85l85 0z m-183 110l-85-85l85 0z m56-185l91 91l0 118l-110 0l0-118c0-8-3-15-8-20c-5-5-12-8-20-8l-118 0l0-183l146 0l0 73c0 8 2 16 6 26c3 9 8 16 13 21z m273-229l0 329l-109 0l0-119c0-8-3-14-8-20c-6-5-12-8-20-8l-119 0l0-182z"/>
<glyph unicode="&#57411;" d="M455 98c10-17 12-31 6-43c-7-12-20-18-40-18l-330 0c-20 0-33 6-40 18c-6 12-4 26 6 43l144 227l0 114l-18 0c-5 0-9 2-13 5c-4 4-5 8-5 13c0 5 1 9 5 13c4 4 8 5 13 5l146 0c5 0 9-1 13-5c4-4 5-8 5-13c0-5-1-9-5-13c-4-3-8-5-13-5l-18 0l0-114z m-223 207l-78-122l204 0l-78 122l-6 9l0 125l-36 0l0-125z"/>
<glyph unicode="&#57412;" d="M512 188c0-29-10-53-30-73c-20-20-44-30-72-30l-291 0c-32 0-61 12-84 35c-23 24-35 52-35 85c0 23 6 45 19 64c13 20 29 34 50 44c-1 5-1 9-1 11c0 38 14 70 40 97c27 26 59 40 97 40c28 0 53-8 76-24c23-15 40-36 50-61c13 11 27 17 44 17c19 0 35-7 49-20c13-14 20-30 20-49c0-13-4-25-11-37c23-5 42-17 57-35c15-19 22-40 22-64z"/>
<glyph unicode="&#57413;" d="M434 165c0 7-2 14-8 19l-59 59c-5 6-12 8-20 8c-8 0-14-3-20-9c0 0 2-2 5-5c3-3 5-5 6-6c1-1 3-3 5-6c2-2 3-4 3-7c1-2 1-5 1-8c0-7-2-14-8-19c-5-5-11-8-19-8c-3 0-5 0-8 1c-2 1-5 2-7 4c-3 1-4 3-6 4c-1 1-3 3-6 6c-3 3-4 5-5 5c-6-5-9-12-9-20c0-8 2-15 8-20l58-59c6-5 12-8 20-8c7 0 14 3 19 8l42 41c6 6 8 12 8 20z m-201 201c0 8-2 14-8 19l-58 60c-6 5-12 8-20 8c-7 0-14-3-19-8l-42-42c-6-5-8-12-8-19c0-8 2-14 8-19l59-60c5-5 12-8 20-8c8 0 14 3 20 9c0 1-2 3-5 6c-3 3-5 5-6 6c-1 1-3 3-5 5c-2 3-3 5-3 7c-1 3-1 5-1 8c0 8 2 14 8 20c5 5 11 8 19 8c3 0 5-1 8-1c2-1 5-2 7-4c3-2 4-3 6-4c1-1 3-3 6-6c3-3 4-5 5-6c6 6 9 13 9 21z m256-201c0-23-8-43-24-58l-42-42c-16-16-35-24-58-24c-23 0-43 8-58 24l-59 60c-16 15-24 35-24 58c0 23 8 43 25 59l-25 25c-16-16-36-25-59-25c-23 0-43 8-59 24l-59 60c-16 16-24 35-24 58c0 23 8 42 24 58l42 42c16 16 35 23 58 23c23 0 43-8 58-24l59-59c16-16 24-35 24-58c0-23-8-43-25-60l25-25c16 17 36 25 59 25c23 0 43-8 59-24l59-59c16-16 24-36 24-58z"/>
<glyph unicode="&#57414;" d="M158 256c-29-1-52-12-71-34l-35 0c-15 0-27 3-37 11c-10 7-15 17-15 31c0 63 11 94 33 94c1 0 5-1 12-5c6-4 15-8 26-12c10-3 21-5 31-5c12 0 24 2 36 6c-1-7-1-13-1-18c0-24 7-47 21-68z m286-170c0-21-7-38-20-50c-13-13-30-19-51-19l-234 0c-21 0-38 6-51 19c-13 12-20 29-20 50c0 10 1 19 1 28c1 9 2 18 4 29c2 10 4 20 7 29c3 9 7 17 11 26c5 8 11 15 17 21c6 6 14 11 23 15c9 3 19 5 30 5c1 0 5-2 11-6c6-4 12-8 19-13c8-4 17-9 29-12c12-4 24-6 36-6c12 0 24 2 36 6c12 3 21 8 29 12c7 5 13 9 19 13c6 4 10 6 11 6c11 0 21-2 30-5c9-4 17-9 23-15c6-6 12-13 17-21c4-9 8-17 11-26c3-9 5-19 7-29c2-11 3-20 4-29c0-9 1-18 1-28z m-273 341c0-19-7-35-20-49c-14-13-30-20-49-20c-18 0-35 7-48 20c-13 14-20 30-20 49c0 19 7 35 20 48c13 13 30 20 48 20c19 0 35-7 49-20c13-13 20-29 20-48z m187-103c0-28-10-52-30-72c-20-20-44-30-72-30c-28 0-52 10-72 30c-20 20-30 44-30 72c0 29 10 53 30 73c20 20 44 30 72 30c28 0 52-10 72-30c20-20 30-44 30-73z m154-60c0-14-5-24-15-31c-10-8-22-11-37-11l-35 0c-19 22-42 33-71 34c14 21 21 44 21 68c0 5 0 11-1 18c12-4 24-6 36-6c10 0 21 2 31 5c11 4 20 8 26 12c7 4 11 5 12 5c22 0 33-31 33-94z m-34 163c0-19-7-35-20-49c-13-13-30-20-48-20c-19 0-35 7-49 20c-13 14-20 30-20 49c0 19 7 35 20 48c14 13 30 20 49 20c18 0 35-7 48-20c13-13 20-29 20-48z"/>
<glyph unicode="&#57415;" d="M293 110l182 0l0 36l-182 0z m-110 146l292 0l0 37l-292 0z m183 146l109 0l0 37l-109 0z m146-237l0-74c0-5-2-9-5-12c-4-4-8-6-13-6l-476 0c-5 0-9 2-13 6c-3 3-5 7-5 12l0 74c0 5 2 9 5 12c4 4 8 6 13 6l476 0c5 0 9-2 13-6c3-3 5-7 5-12z m0 146l0-73c0-5-2-10-5-13c-4-4-8-6-13-6l-476 0c-5 0-9 2-13 6c-3 3-5 8-5 13l0 73c0 5 2 9 5 13c4 3 8 5 13 5l476 0c5 0 9-2 13-5c3-4 5-8 5-13z m0 146l0-73c0-5-2-9-5-13c-4-3-8-5-13-5l-476 0c-5 0-9 2-13 5c-3 4-5 8-5 13l0 73c0 5 2 9 5 13c4 4 8 5 13 5l476 0c5 0 9-1 13-5c3-4 5-8 5-13z"/>
<glyph unicode="&#57416;" d="M403 256c0 5-1 9-5 13l-26 26c-3 3-7 5-13 5c-5 0-9-2-12-5l-54-54l0 143c0 5-2 9-6 13c-3 3-8 5-13 5l-36 0c-5 0-10-2-13-5c-4-4-6-8-6-13l0-143l-54 54c-3 3-7 5-12 5c-5 0-10-2-13-5l-26-26c-4-4-5-8-5-13c0-5 1-10 5-13l103-104l26-26c4-3 8-5 13-5c5 0 9 2 13 5l26 26l103 104c4 3 5 8 5 13z m72 0c0-40-9-77-29-110c-20-34-46-60-80-80c-33-20-70-29-110-29c-40 0-77 9-110 29c-34 20-60 46-80 80c-20 33-29 70-29 110c0 40 9 77 29 110c20 34 46 60 80 80c33 20 70 29 110 29c40 0 77-9 110-29c34-20 60-46 80-80c20-33 29-70 29-110z"/>
</font>
</defs>
</svg>
